<?xml version="1.0" standalone="no"?>
<!DOCTYPE svg PUBLIC "-//W3C//DTD SVG 1.1//EN" "http://www.w3.org/Graphics/SVG/1.1/DTD/svg11.dtd">
<svg xmlns="http://www.w3.org/2000/svg">
<defs >
<font id="Comfortaa" horiz-adv-x="651" ><font-face
    font-family="Comfortaa"
    units-per-em="1000"
    panose-1="0 0 8 0 0 0 0 0 0 0"
    ascent="881"
    descent="-234"
    alphabetic="0" />
<glyph unicode=" " glyph-name="space" horiz-adv-x="293" />
<glyph unicode="!" glyph-name="exclam" horiz-adv-x="288" d="M68 751T82 766T119 781Q141 781 155 766T170 729V236Q170 215 155 200T119 185Q98 185 83 200T68 236V729Q68 751 82 766ZM147 139T167 119T188 69Q188 40 168 20T119 0Q91 0 71 20T50 69Q50 98
70 118T119 139Q147 139 167 119Z" />
<glyph unicode="&quot;" glyph-name="quotedbl" horiz-adv-x="273" d="M150 751T165 766T201 781Q222 781 237 766T252 730L243 590Q242 573 230 561T201 549Q184 549 172 561T160 590L150 730Q150 751 165 766ZM30 750T45 765T81 780Q101 780 116 765T131 729L122
590Q122 573 110 561T81 549Q64 549 52 561T39 590L30 729Q30 750 45 765Z" />
<glyph unicode="#" glyph-name="numbersign" horiz-adv-x="717" d="M649 551T661 540T671 508Q670 489 654 478T614 467H547L523 325H587Q610 325 621 315T633 285Q633 268 617 255T574 241H502L469 50Q465 27 452 14T415 0Q397 0 386 12T375 43Q375 50 376 54L407
241H253L221 50Q217 28 203 14T167 0Q148 0 137 10T126 42Q126 50 127 54L159 241H90Q70 241 58 250T45 276Q45 300 60 312T103 325H180L203 467H129Q108 467 96 476T83 504Q83 527 98 539T142 551H223L256 732Q266 782 310 782Q329 782 340 771T351 740Q351 732
350 728L318 551H472L505 732Q509 754 523 768T559 782Q578 782 588 771T599 742Q599 733 598 728L567 551H627Q649 551 661 540ZM452 467H298L275 325H428L452 467Z" />
<glyph unicode="$" glyph-name="dollar" horiz-adv-x="636" d="M587 148T557 101T475 26T363 -8V-71Q363 -85 355 -93T332 -102Q319 -102 310 -94T301 -71V-9Q212 -4 143 34T47 136Q43 145 43 156Q43 171 53 182T81 197Q84 198 90 198Q104 198 117 189T138 164Q153
131 198 109T301 82V355Q195 371 134 428T72 571Q72 657 136 711T301 774V822Q301 836 310 844T332 853Q346 853 354 845T363 822V774Q437 768 486 735T571 642Q582 623 582 607Q582 584 563 572Q553 565 539 565Q526 565 514 572T495 592Q474 631 443 654T363
684V433Q467 419 527 362T587 212Q587 148 557 101ZM171 525T199 492T301 442V685Q242 679 207 649T171 570Q171 525 199 492ZM417 93T452 125T487 209Q487 257 456 293T363 345V84Q417 93 452 125Z" />
<glyph unicode="%" glyph-name="percent" horiz-adv-x="859" d="M280 781T326 754T399 680T426 581Q426 528 399 482T327 409T227 382Q173 382 127 409T54 482T27 581Q27 634 54 680T127 753T227 781Q280 781 326 754ZM672 781T695 781Q717 781 732 766T747 730Q747
713 736 699L205 16Q190 0 167 0Q145 0 131 15T116 51Q116 72 128 85L654 761Q672 781 695 781ZM186 679T158 650T129 581Q129 541 157 513T227 484Q267 484 295 512T324 581Q324 621 295 650T227 679Q186 679 158 650ZM686 398T732 372T805 299T833 199Q833 145
806 100T733 27T633 0Q579 0 534 27T461 99T434 199Q434 253 461 298T533 371T633 398Q686 398 732 372ZM593 296T565 268T536 199Q536 159 564 131T633 102Q673 102 702 130T731 199Q731 239 702 267T633 296Q593 296 565 268Z" />
<glyph unicode="&amp;" glyph-name="ampersand" horiz-adv-x="731" d="M704 58T704 43Q704 30 690 16Q674 0 658 0Q644 0 626 16L516 126L511 120Q455 56 394 21T257 -14Q161 -14 103 38T45 181Q45 244 86 297T212 419L218 423L166 475Q96 547 96 630Q96 677 120
716T186 777T280 799Q333 799 375 776T441 713T465 623Q464 566 436 523T338 424L518 244L598 329Q617 350 632 350Q643 350 655 338Q671 323 671 306Q671 289 657 274L575 187L686 76Q704 58 704 43ZM284 477L295 485Q344 524 361 555T379 625Q379 665 353 692T280
719Q237 719 210 694T182 632Q182 579 231 530L284 477ZM459 183L271 370L258 360Q200 314 170 272T139 185Q139 129 169 101T257 72Q313 72 357 97T452 175L459 183Z" />
<glyph unicode="&apos;" glyph-name="quotesingle" horiz-adv-x="156" d="M30 750T45 765T81 780Q101 780 116 765T131 729L122 590Q122 573 110 561T81 549Q64 549 52 561T39 590L30 729Q30 750 45 765Z" />
<glyph unicode="(" glyph-name="parenleft" horiz-adv-x="273" d="M218 780T232 765T247 727Q246 711 240 701Q135 488 135 273Q135 168 162 59T241 -157Q247 -169 247 -182Q247 -204 233 -219T196 -234Q180 -234 169 -226T148 -200Q35 38 35 274Q35 515 148 745Q155
762 168 771T196 780Q218 780 232 765Z" />
<glyph unicode=")" glyph-name="parenright" horiz-adv-x="273" d="M55 780T41 765T26 727Q27 711 33 701Q138 488 138 273Q138 168 111 59T32 -157Q26 -169 26 -182Q26 -204 40 -219T77 -234Q93 -234 104 -226T125 -200Q238 38 238 274Q238 515 125 745Q118 762
105 771T77 780Q55 780 41 765Z" />
<glyph unicode="*" glyph-name="asterisk" horiz-adv-x="381" d="M143 722T143 729Q143 751 157 766T194 781Q216 781 230 766T245 729Q245 722 242 713L228 666L267 695Q281 706 299 706Q318 706 334 692T350 655Q350 635 337 620T301 604L250 602L291 573Q314
556 314 531Q314 509 299 495T256 480Q227 483 215 515L194 565L174 514Q169 497 156 489T125 480Q102 480 88 495T74 531Q74 557 98 573L138 602L88 604Q67 606 53 620T38 655Q38 677 54 691T89 706Q105 706 121 695L160 667L146 713Q143 722 143 729Z" />
<glyph unicode="+" glyph-name="plus" horiz-adv-x="547" d="M223 591T238 606T274 621Q296 621 310 607T325 570V436H459Q480 436 495 421T511 384Q511 363 496 348T459 333H325V199Q325 177 311 163T274 148Q252 148 238 162T223 199V333H89Q67 333 53 348T38
385Q38 407 52 421T89 436H223V570Q223 591 238 606Z" />
<glyph unicode="," glyph-name="comma" horiz-adv-x="245" d="M155 123T175 97T195 25Q195 -16 177 -63T131 -141T81 -173Q69 -173 63 -166T56 -147Q56 -135 61 -125T77 -100Q90 -82 96 -70T102 -40Q102 -25 96 -15T77 8Q64 21 57 32T50 60Q50 87 68 105T117 123Q155
123 175 97Z" />
<glyph unicode="-" glyph-name="hyphen" horiz-adv-x="391" d="M332 324T346 310T360 273Q360 251 346 237T310 223H87Q65 223 51 237T36 273Q36 295 50 309T87 324H310Q332 324 346 310Z" />
<glyph unicode="." glyph-name="period" horiz-adv-x="238" d="M147 123T167 103T188 53Q188 25 168 5T119 -16Q91 -16 71 4T50 53Q50 82 70 102T119 123Q147 123 167 103Z" />
<glyph unicode="/" glyph-name="slash" horiz-adv-x="469" d="M349 765T362 773T390 781Q411 781 425 767T440 731Q440 720 436 709L135 -44Q129 -59 116 -66T88 -74Q67 -74 52 -60T37 -24Q37 -14 42 -2L343 751Q349 765 362 773Z" />
<glyph unicode="0" glyph-name="zero" horiz-adv-x="578" d="M364 782T418 735T500 600T528 391Q528 270 500 182T418 47T289 0Q175 0 113 103T50 391Q50 576 112 679T289 782Q364 782 418 735ZM222 679T188 600T153 391Q153 261 188 183T289 104Q356 104 390
183T425 391Q425 519 390 599T289 679Q222 679 188 600Z" />
<glyph unicode="1" glyph-name="one" horiz-adv-x="393" d="M101 623T86 623Q64 623 50 637T35 673Q35 690 43 702T68 721L224 777Q236 781 243 781Q265 781 279 767T293 729V51Q293 30 278 15T241 0Q221 0 206 15T191 51V661L118 630Q101 623 86 623Z" />
<glyph unicode="2" glyph-name="two" horiz-adv-x="588" d="M508 102T523 87T538 51Q538 30 523 15T486 0H116Q94 0 80 15T65 51Q65 73 79 87L363 419Q426 491 426 544Q426 609 393 648T301 687Q264 687 233 668T185 615T167 544Q167 524 153 509T116 494Q95 494
80 509T65 544Q65 611 96 665T180 750T301 781Q368 781 418 752T496 670T524 544Q524 500 499 453T435 362L206 102H486Q508 102 523 87Z" />
<glyph unicode="3" glyph-name="three" horiz-adv-x="599" d="M372 782T420 757T495 687T523 589Q523 535 489 496T404 433Q480 407 517 354T554 227Q554 163 521 111T433 30T312 0Q238 0 180 31T88 117T55 240Q55 262 68 277T101 292Q121 292 134 277T147 240Q147
199 168 165T225 110T306 89Q373 89 413 126T453 228Q453 269 435 303T386 357T316 377Q294 377 280 392T265 429Q265 451 279 465T316 480Q344 480 370 494T413 534T430 589Q430 633 398 663T316 693Q278 693 247 678T197 638T178 582Q178 559 165 544T132 528Q112
528 99 542T86 579Q86 636 116 682T198 755T314 782Q372 782 420 757Z" />
<glyph unicode="4" glyph-name="four" horiz-adv-x="653" d="M585 269T599 258T613 223Q613 204 598 191T562 177H502V51Q502 30 488 15T452 0Q432 0 418 15T404 51V177H71Q48 177 34 192T20 227Q20 244 30 257L413 759Q430 781 455 781Q476 781 489 766T502 729V269H562Q585
269 599 258ZM404 269V600L152 269H404Z" />
<glyph unicode="5" glyph-name="five" horiz-adv-x="629" d="M390 510T448 477T540 385T574 255Q574 184 541 126T449 34T319 0Q248 0 190 33T98 125T65 255Q65 277 79 291T115 306Q137 306 152 292T167 255Q167 212 187 177T241 122T319 102Q362 102 397 122T452
177T472 255Q472 298 452 333T397 388T319 408H152Q130 408 116 422T102 459V729Q102 751 116 766T152 781H486Q507 781 522 766T537 729Q537 709 523 694T486 679H203V510H319Q390 510 448 477Z" />
<glyph unicode="6" glyph-name="six" horiz-adv-x="581" d="M369 475T422 445T506 360T536 237Q536 169 506 115T423 31T301 0Q232 0 179 30T95 115T65 237Q65 314 103 374L330 752Q348 780 376 780Q399 780 414 765T429 729Q429 714 421 702L284 475H301Q369
475 422 445ZM362 90T401 131T440 237Q440 302 401 343T300 385Q239 385 200 344T161 237Q161 172 199 131T300 90Q362 90 401 131Z" />
<glyph unicode="7" glyph-name="seven" horiz-adv-x="547" d="M63 679T49 693T34 730Q34 752 48 766T85 781H466Q487 781 502 766T517 730Q517 719 510 703L190 28Q183 15 170 8T143 0Q123 0 108 15T93 51Q93 65 102 83L389 679H85Q63 679 49 693Z" />
<glyph unicode="8" glyph-name="eight" horiz-adv-x="581" d="M464 408T492 358T521 244Q521 176 491 121T409 33T291 1Q226 1 173 32T90 118T60 241Q60 304 88 355T167 438Q132 464 113 503T93 588Q93 644 119 689T190 761T293 787Q348 787 392 762T462 691T488
590Q488 543 469 504T414 439Q464 408 492 358ZM192 544T220 513T291 482Q333 482 361 514T389 593Q389 637 361 665T291 694Q248 694 220 665T192 589Q192 544 220 513ZM421 302T384 341T291 381Q234 381 197 341T160 239Q160 199 177 166T224 113T291 93Q328
93 357 113T404 167T421 243Q421 302 384 341Z" />
<glyph unicode="9" glyph-name="nine" horiz-adv-x="581" d="M212 307T159 337T75 422T45 545Q45 613 75 667T158 751T280 782Q349 782 402 752T486 667T516 545Q516 468 478 408L251 30Q233 2 205 2Q182 2 167 17T152 53Q152 68 160 80L297 307H280Q212 307 159
337ZM219 692T180 651T141 545Q141 480 180 439T281 397Q342 397 381 438T420 545Q420 610 382 651T281 692Q219 692 180 651Z" />
<glyph unicode=":" glyph-name="colon" horiz-adv-x="195" d="M376 547T396 527T417 477Q417 449 397 429T348 408Q320 408 300 428T279 477Q279 506 299 526T348 547Q376 547 396 527ZM387 123T407 103T428 53Q428 25 408 5T359 -16Q331 -16 311 4T290 53Q290
82 310 102T359 123Q387 123 407 103Z" />
<glyph unicode=";" glyph-name="semicolon" horiz-adv-x="195" d="M155 123T175 97T195 25Q195 -16 177 -63T131 -141T81 -173Q69 -173 63 -166T56 -147Q56 -135 61 -125T77 -100Q90 -82 96 -70T102 -40Q102 -25 96 -15T77 8Q64 21 57 32T50 60Q50 87 68 105T117
123Q155 123 175 97ZM126 547T146 527T167 477Q167 449 147 429T98 408Q70 408 50 428T29 477Q29 506 49 526T98 547Q126 547 146 527Z" />
<glyph unicode="&lt;" glyph-name="less" horiz-adv-x="547" d="M511 153T511 125Q511 103 495 89T459 74Q445 74 434 81L65 302Q38 319 38 348Q38 374 65 393L434 615Q448 621 460 621Q481 621 496 608T511 573Q511 543 486 528L185 349L486 169Q511 153 511 125Z" />
<glyph unicode="=" glyph-name="equal" horiz-adv-x="508" d="M443 510T458 495T473 459Q473 437 458 423T422 408H88Q66 408 52 422T38 459Q38 481 52 495T88 510H422Q443 510 458 495ZM443 287T458 272T473 236Q473 215 458 200T422 185H88Q66 185 52 199T38
236Q38 258 52 272T88 287H422Q443 287 458 272Z" />
<glyph unicode="&gt;" glyph-name="greater" horiz-adv-x="547" d="M511 374T511 348Q511 319 484 302L115 81Q104 74 90 74Q70 74 54 88T38 125Q38 153 63 169L364 349L63 528Q38 543 38 573Q38 594 53 607T89 621Q101 621 115 615L484 393Q511 374 511 348Z" />
<glyph unicode="?" glyph-name="question" horiz-adv-x="547" d="M348 797T399 770T480 693T509 580Q509 526 492 486T446 414T371 345Q347 326 336 294T325 236Q325 214 311 200T274 185Q252 185 238 199T223 236Q223 278 244 324T305 404Q343 436 362 457T395
508T409 580Q409 631 375 667T284 703Q213 703 177 665T140 560Q140 538 126 524T89 509Q67 509 53 523T38 560Q38 629 68 683T155 767T284 797Q348 797 399 770ZM303 139T323 119T344 69Q344 41 324 21T274 0Q246 0 226 20T205 69Q205 98 225 118T274 139Q303
139 323 119Z" />
<glyph unicode="@" glyph-name="at" horiz-adv-x="1094" d="M827 60T861 60Q885 60 905 87T938 163T950 273Q950 390 899 481T756 624T547 676Q430 676 339 625T196 482T144 273Q144 156 195 65T338 -78T547 -130Q587 -130 633 -121T713 -96Q733 -87 747 -87Q767
-87 778 -101T790 -142Q790 -169 759 -190T673 -222T547 -234Q400 -234 285 -170T105 10T40 273Q40 420 104 535T284 715T547 780Q694 780 809 716T989 536T1054 273Q1054 181 1028 109T956 -4T851 -45Q795 -45 760 -15T725 66V111Q696 59 644 26T537 -7Q459 -7
398 28T303 128T268 273Q268 354 303 417T402 517T547 553Q628 553 692 518T791 418T827 273V113Q827 60 861 60ZM496 448T456 426T394 364T372 273Q372 222 394 182T456 120T547 98Q598 98 638 120T700 182T722 273Q722 324 700 364T638 426T547 448Q496 448 456
426Z" />
<glyph unicode="A" glyph-name="A" horiz-adv-x="703" d="M689 60T689 51Q689 30 674 15T637 0Q622 0 609 8T589 32L533 172H174L117 32Q110 17 97 9T69 0Q47 0 33 15T18 52Q18 62 23 75L304 746Q319 781 353 781Q389 781 402 746L684 73Q689 60 689 51ZM498 258L355
614L209 258H498Z" />
<glyph unicode="B" glyph-name="B" horiz-adv-x="723" d="M458 781T510 755T591 681T621 573Q621 524 595 485T522 422Q590 406 629 358T668 236Q668 168 636 114T545 30T412 0H152Q130 0 115 15T100 52V729Q100 752 115 766T152 781H391Q458 781 510 755ZM450
460T485 489T521 573Q521 628 486 656T391 685H204V460H391Q450 460 485 489ZM482 96T525 132T568 236Q568 298 526 331T412 364H204V96H412Q482 96 525 132Z" />
<glyph unicode="C" glyph-name="C" horiz-adv-x="777" d="M526 791T581 771T694 705Q706 696 710 687T714 664Q714 644 700 631T666 618Q647 618 631 631Q590 666 551 681T450 697Q372 697 307 656T203 545T164 391Q164 307 202 237T306 126T450 85Q546 85 634
151Q651 163 667 163Q686 163 698 150T711 114Q711 93 695 77Q587 -10 450 -10Q343 -10 255 43T115 188T64 391Q64 501 115 592T254 737T450 791Q526 791 581 771Z" />
<glyph unicode="D" glyph-name="D" horiz-adv-x="783" d="M446 781T534 731T671 593T720 391Q720 278 671 189T534 50T333 0H152Q130 0 115 15T100 52V729Q100 752 115 766T152 781H333Q446 781 534 731ZM416 92T481 130T583 236T620 391Q620 477 584 545T482
651T333 689H204V92H333Q416 92 481 130Z" />
<glyph unicode="E" glyph-name="E" horiz-adv-x="700" d="M627 96T641 83T655 49Q655 27 641 14T604 0H152Q130 0 115 15T100 52V729Q100 752 115 766T152 781H604Q627 781 641 768T655 732Q655 711 641 698T604 685H204V442H491Q513 442 527 429T542 394Q542
373 528 360T491 346H204V96H604Q627 96 641 83Z" />
<glyph unicode="F" glyph-name="F" horiz-adv-x="625" d="M450 442T464 429T479 394Q479 373 465 360T428 346H141V52Q141 30 126 15T89 0Q67 0 52 15T37 52V729Q37 752 52 766T89 781H541Q564 781 578 768T592 732Q592 711 578 698T541 685H141V442H428Q450 442
464 429Z" />
<glyph unicode="G" glyph-name="G" horiz-adv-x="777" d="M682 405T696 391T711 353V114Q711 90 695 77Q590 -10 450 -10Q343 -10 255 43T115 188T64 391Q64 501 115 592T254 737T450 791Q526 791 581 771T694 705Q706 696 710 687T714 664Q714 644 700 631T665
618Q647 618 631 631Q590 666 551 681T450 697Q372 697 307 656T203 545T164 391Q164 307 202 237T306 126T450 85Q534 85 611 135V313H473Q450 313 436 326T421 359Q421 379 435 392T473 405H660Q682 405 696 391Z" />
<glyph unicode="H" glyph-name="H" horiz-adv-x="871" d="M668 752T683 766T720 781Q742 781 756 767T771 729V52Q771 29 757 15T720 0Q698 0 683 15T668 52V350H204V52Q204 30 190 15T152 0Q130 0 115 15T100 52V729Q100 752 115 766T152 781Q175 781 189 767T204
729V442H668V729Q668 752 683 766Z" />
<glyph unicode="I" glyph-name="I" horiz-adv-x="304" d="M100 752T115 766T152 781Q175 781 189 767T204 729V52Q204 30 190 15T152 0Q130 0 115 15T100 52V729Q100 752 115 766Z" />
<glyph unicode="J" glyph-name="J" horiz-adv-x="626" d="M526 160T495 106T410 21T285 -10Q215 -10 161 20T76 105T45 230Q45 253 60 267T97 282Q120 282 134 268T149 230Q149 166 187 125T285 84Q345 84 383 125T422 230V729Q422 752 436 766T473 781Q496 781
511 767T526 729V230Q526 160 495 106Z" />
<glyph unicode="K" glyph-name="K" horiz-adv-x="667" d="M204 30T189 15T152 0Q131 0 116 15T100 52V729Q100 751 115 766T152 781Q174 781 189 766T204 729V429L535 760Q547 772 556 776T578 781Q599 781 610 769T622 738Q622 712 603 693L348 437L608 83Q618
69 618 51Q618 31 605 16T572 0Q544 0 529 22L276 365L204 293V52Q204 30 189 15Z" />
<glyph unicode="L" glyph-name="L" horiz-adv-x="642" d="M587 104T602 89T617 52Q617 30 602 15T565 0H151Q129 0 115 15T100 52V729Q100 751 115 766T151 781Q173 781 188 766T203 729V104H565Q587 104 602 89Z" />
<glyph unicode="M" glyph-name="M" horiz-adv-x="982" d="M852 781T867 766T882 729V52Q882 30 867 15T830 0Q808 0 793 15T778 52V549L536 56Q519 30 491 30Q458 30 443 61L204 540V52Q204 30 189 15T152 0Q130 0 115 15T100 52V729Q100 751 115 766T152 781Q182
781 198 753L495 158L784 753Q800 781 830 781Q852 781 867 766Z" />
<glyph unicode="N" glyph-name="N" horiz-adv-x="830" d="M627 752T642 766T679 781Q701 781 715 767T730 729V52Q730 29 716 15T679 0Q668 0 657 4T639 18L203 598V52Q203 30 189 15T151 0Q129 0 115 14T100 52V729Q100 752 114 766T151 781Q162 781 173 776T191
762L627 182V729Q627 752 642 766Z" />
<glyph unicode="O" glyph-name="O" horiz-adv-x="921" d="M576 791T666 740T807 598T858 391Q858 275 808 184T667 41T461 -10Q345 -10 255 41T114 183T64 391Q64 507 114 598T254 740T461 791Q576 791 666 740ZM375 697T308 657T202 547T164 391Q164 305 202
235T308 125T461 84Q546 84 614 124T720 235T758 391Q758 477 720 547T615 657T461 697Q375 697 308 657Z" />
<glyph unicode="P" glyph-name="P" horiz-adv-x="623" d="M204 30T190 15T152 0Q130 0 115 15T100 52V729Q100 752 115 766T152 781H352Q426 781 484 748T575 656T608 522Q608 449 576 392T485 303T352 271H204V52Q204 30 190 15ZM420 367T464 410T508 522Q508
593 464 639T352 685H204V367H352Q420 367 464 410Z" />
<glyph unicode="Q" glyph-name="Q" horiz-adv-x="921" d="M805 86Q820 70 820 51Q820 31 805 16Q789 0 770 0Q752 0 734 16L693 57Q593 -10 461 -10Q345 -10 255 41T114 183T64 391Q64 507 114 598T254 740T461 791Q576 791 666 740T807 598T858 391Q858 312 835
244T767 124L805 86ZM551 84T621 129L525 225Q509 243 509 261Q509 280 525 296Q541 312 561 312Q581 312 596 296L695 196Q758 279 758 391Q758 477 720 547T615 657T461 697Q375 697 308 657T202 547T164 391Q164 305 202 235T308 125T461 84Q551 84 621 129Z"
/>
<glyph unicode="R" glyph-name="R" horiz-adv-x="632" d="M617 64T617 47Q617 27 604 14T567 0Q538 0 522 25L350 301H332H204V52Q204 30 190 15T152 0Q130 0 115 15T100 52V729Q100 752 115 766T152 781H332Q406 781 464 750T555 663T588 535Q588 464 552 409T454
326L607 80Q617 64 617 47ZM332 397Q400 397 444 435T488 535Q488 601 444 643T332 685H204V397H332Z" />
<glyph unicode="S" glyph-name="S" horiz-adv-x="688" d="M448 790T507 755T607 655Q619 636 619 619Q619 597 599 583Q588 576 573 576Q558 576 545 583T525 604Q498 649 458 672T355 696Q279 696 232 667T185 581Q185 529 227 494T377 448Q497 436 563 376T629
216Q629 144 590 93T487 16T348 -10Q251 -10 172 34T62 149Q57 161 57 169Q57 184 68 195T98 211Q101 212 108 212Q124 212 138 203T160 177Q178 138 231 111T348 84Q423 84 475 118T527 213Q527 270 483 310T349 360Q225 372 154 432T83 584Q83 648 119 694T219
765T362 790Q448 790 507 755Z" />
<glyph unicode="T" glyph-name="T" horiz-adv-x="661" d="M619 781T632 768T646 733Q646 712 633 699T598 685H383V52Q383 30 368 15T331 0Q309 0 294 15T279 52V685H63Q42 685 29 698T15 733Q15 754 28 767T63 781H598Q619 781 632 768Z" />
<glyph unicode="U" glyph-name="U" horiz-adv-x="845" d="M100 752T115 766T152 781Q175 781 189 767T204 729V262Q204 209 232 167T311 102T427 78Q489 78 538 101T614 167T642 262V729Q642 752 657 766T694 781Q716 781 730 767T745 729V262Q745 182 705 119T592
20T427 -16Q332 -16 258 19T142 118T100 262V729Q100 752 115 766Z" />
<glyph unicode="V" glyph-name="V" horiz-adv-x="737" d="M692 781T704 769T717 738Q717 726 711 712L415 33Q402 0 368 0Q336 0 321 33L28 703Q20 724 20 738Q20 758 32 769T67 781Q102 781 115 750L367 146L623 750Q630 768 641 774T670 781Q692 781 704 769Z" />
<glyph unicode="W" glyph-name="W" horiz-adv-x="938" d="M907 781T917 769T927 737Q927 722 923 709L722 42Q715 23 702 12T670 0Q652 0 638 11T618 41L469 617L318 42Q311 23 298 12T266 0Q248 0 234 11T214 41L13 709Q9 722 9 736Q9 757 20 769T52 781Q70 781
83 771T103 742L267 172L418 736Q422 751 436 761T468 771Q485 771 499 762T517 737L670 168L836 747Q841 765 853 773T887 781Q907 781 917 769Z" />
<glyph unicode="X" glyph-name="X" horiz-adv-x="716" d="M657 84Q668 68 668 50Q668 30 655 15T620 0Q595 0 580 19L363 320L133 15Q118 0 97 0Q75 0 63 14T50 48Q50 68 62 84L295 394L75 699Q65 712 65 730Q65 751 78 766T113 781Q139 781 150 766L365 468L589
766Q603 781 626 781Q647 781 659 767T672 733Q672 716 661 699L433 395L657 84Z" />
<glyph unicode="Y" glyph-name="Y" horiz-adv-x="670" d="M640 781T652 767T665 733Q665 716 655 700L386 285V52Q386 30 371 15T334 0Q313 0 298 15T283 52V285L16 700Q5 717 5 732Q5 753 20 767T57 781Q73 781 83 774T103 752L337 381L575 756Q591 781 621 781Q640
781 652 767Z" />
<glyph unicode="Z" glyph-name="Z" horiz-adv-x="742" d="M92 689T79 701T67 733Q66 754 80 767T118 781H634Q658 781 672 766T687 729Q687 713 676 699L185 92H634Q656 92 670 79T685 47Q685 25 671 13T634 0H106Q83 0 69 16T55 53Q55 71 65 84L554 689H116Q92
689 79 701Z" />
<glyph unicode="[" glyph-name="bracketleft" horiz-adv-x="321" d="M292 -130T306 -145T321 -182Q321 -205 307 -219T269 -234H117Q95 -234 80 -220T65 -182V729Q65 752 80 767T117 782H269Q291 782 306 767T321 729Q321 707 306 693T269 678H169V-130H269Q292
-130 306 -145Z" />
<glyph unicode="\" glyph-name="backslash" horiz-adv-x="469" d="M29 717T29 729Q29 752 44 767T81 782Q117 782 129 751L431 -6Q436 -16 436 -27Q436 -49 421 -64T384 -79Q370 -79 356 -71T336 -48L33 708Q29 717 29 729Z" />
<glyph unicode="]" glyph-name="bracketright" horiz-adv-x="321" d="M29 -130T15 -145T0 -182Q0 -205 14 -219T52 -234H204Q226 -234 241 -220T256 -182V729Q256 752 241 767T204 782H52Q30 782 15 767T0 729Q0 707 15 693T52 678H152V-130H52Q29 -130 15 -145Z" />
<glyph unicode="^" glyph-name="asciicircum" horiz-adv-x="469" d="M114 456T88 456Q66 456 52 470T37 507Q37 522 44 534L194 759Q210 781 236 781Q262 781 278 759L428 534Q436 521 436 507Q436 486 421 471T385 456Q360 456 343 476L236 637L129 476Q114 456 88 456Z" />
<glyph unicode="_" glyph-name="underscore" horiz-adv-x="469" d="M498 0T512 -15T527 -51Q527 -72 512 -87T477 -102H8Q-14 -102 -28 -87T-43 -51Q-43 -29 -29 -15T8 0H477Q498 0 512 -15Z" />
<glyph unicode="`" glyph-name="grave" horiz-adv-x="273" d="M35 707T35 729Q35 751 49 766T85 781Q105 781 122 766L219 668Q232 655 232 634Q232 612 218 598T181 583Q159 583 146 597L48 694Q35 707 35 729Z" />
<glyph unicode="a" glyph-name="a" horiz-adv-x="675" d="M415 551T477 515T576 415T613 273V50Q613 28 599 14T562 -1Q540 -1 526 13T511 50V87Q476 44 426 20T318 -4Q246 -4 188 32T96 131T62 273Q62 351 98 414T197 514T338 551Q415 551 477 515ZM388 86T428
110T492 177T515 273Q515 326 492 369T429 436T338 461Q288 461 248 437T184 369T160 273Q160 220 183 178T247 111T338 86Q388 86 428 110Z" />
<glyph unicode="b" glyph-name="b" horiz-adv-x="703" d="M118 781T104 767T90 730V274Q90 196 126 133T225 33T365 -4Q442 -4 505 32T605 132T641 274Q641 352 608 415T516 515T385 551Q327 551 277 527T192 460V730Q192 753 178 767T141 781Q118 781 104 767ZM315
86T275 110T211 178T188 274Q188 327 211 369T274 436T365 461Q415 461 455 437T519 370T543 274Q543 221 520 178T456 111T365 86Q315 86 275 110Z" />
<glyph unicode="c" glyph-name="c" horiz-adv-x="601" d="M451 551T529 461Q539 450 539 435Q539 413 517 398Q507 391 494 391Q471 391 455 409Q430 436 401 448T333 461Q256 461 208 410T160 273Q160 219 182 177T245 110T338 86Q406 86 448 121Q467 135 485
135Q499 135 511 126Q530 110 530 90Q530 75 518 63Q446 -4 338 -4Q259 -4 196 32T98 131T62 273Q62 353 96 416T193 515T333 551Q451 551 529 461Z" />
<glyph unicode="d" glyph-name="d" horiz-adv-x="703" d="M585 781T599 767T613 730V274Q613 196 577 133T478 33T338 -4Q261 -4 198 32T98 132T62 274Q62 352 95 415T187 515T318 551Q376 551 426 527T511 460V730Q511 753 525 767T562 781Q585 781 599 767ZM388
86T428 110T492 178T515 274Q515 327 492 369T429 436T338 461Q288 461 248 437T184 370T160 274Q160 221 183 178T247 111T338 86Q388 86 428 110Z" />
<glyph unicode="e" glyph-name="e" horiz-adv-x="621" d="M581 263T568 251T535 238H155Q166 168 218 125T347 82Q377 82 409 93T463 120Q477 131 496 131Q515 131 526 121Q544 106 544 87Q544 69 528 57Q494 30 444 13T347 -4Q265 -4 200 31T99 130T62 273Q62
353 96 416T192 515T332 551Q409 551 465 517T551 422T581 282Q581 263 568 251ZM259 465T214 425T156 318H489Q480 385 439 425T332 465Q259 465 214 425Z" />
<glyph unicode="f" glyph-name="f" horiz-adv-x="367" d="M270 689T236 652T202 554V527H304Q325 527 338 515T351 483Q351 465 338 453T304 441H202V51Q202 28 188 14T149 0Q129 0 115 14T100 51V441H57Q36 441 23 453T10 483Q10 503 23 515T57 527H100V544Q100
615 128 668T208 751T326 781Q348 781 362 768T377 735Q377 715 363 702T326 689Q270 689 236 652Z" />
<glyph unicode="g" glyph-name="g" horiz-adv-x="675" d="M417 551T479 516T577 417T613 273V57Q613 -22 578 -87T480 -189T336 -227Q264 -227 202 -199T98 -117Q87 -103 87 -89Q87 -68 108 -53Q122 -44 136 -44Q161 -44 177 -65Q204 -100 245 -118T338 -137Q387
-137 427 -114T491 -45T515 64V113Q484 58 433 27T318 -4Q244 -4 186 31T95 130T62 273Q62 354 97 417T195 515T338 551Q417 551 479 516ZM389 86T429 110T492 176T515 273Q515 327 493 370T430 437T338 461Q287 461 247 437T183 370T160 273Q160 219 183 177T246
110T338 86Q389 86 429 110Z" />
<glyph unicode="h" glyph-name="h" horiz-adv-x="683" d="M431 552T486 522T572 435T603 296V50Q603 28 589 14T552 -1Q530 -1 516 13T501 50V296Q501 377 458 418T342 460Q300 460 266 443T212 397T192 332V50Q192 28 178 14T141 -1Q119 -1 105 13T90 50V730Q90
753 104 767T141 781Q164 781 178 767T192 730V485Q224 517 268 534T362 552Q431 552 486 522Z" />
<glyph unicode="i" glyph-name="i" horiz-adv-x="302" d="M100 519T114 533T151 547Q174 547 188 533T202 496V51Q202 29 188 15T151 0Q129 0 115 14T100 51V496Q100 519 114 533ZM178 768T197 749T217 702Q217 675 198 656T151 636Q124 636 105 655T85 702Q85
729 104 748T151 768Q178 768 197 749Z" />
<glyph unicode="j" glyph-name="j" horiz-adv-x="287" d="M187 -66T157 -120T73 -204T-50 -234Q-72 -234 -86 -220T-100 -183Q-100 -161 -86 -147T-50 -132Q9 -132 47 -95T85 2V496Q85 519 99 533T136 547Q159 547 173 533T187 496V2Q187 -66 157 -120ZM163 768T182
749T202 702Q202 675 183 656T136 636Q109 636 90 655T70 702Q70 729 89 748T136 768Q163 768 182 749Z" />
<glyph unicode="k" glyph-name="k" horiz-adv-x="569" d="M514 60T514 42Q514 20 496 5Q481 -7 464 -7Q442 -7 428 11L238 246L188 202V49Q188 27 175 14T139 0Q117 0 104 13T90 49V732Q90 754 103 767T139 781Q161 781 174 768T188 732V325L431 542Q444 555 462
555Q483 555 496 539Q509 526 509 508Q509 487 493 474L309 310L503 72Q514 60 514 42Z" />
<glyph unicode="l" glyph-name="l" horiz-adv-x="300" d="M70 753T84 767T120 781Q142 781 156 767T170 731V185Q170 148 184 124T220 100H245Q265 100 277 86T290 50Q290 28 271 14T222 0H220Q177 0 143 23T89 89T70 185V731Q70 753 84 767Z" />
<glyph unicode="m" glyph-name="m" horiz-adv-x="938" d="M752 552T805 495T859 336V50Q859 28 845 14T808 -1Q786 -1 772 13T757 50V336Q757 397 727 428T645 460Q593 460 560 424T526 332V50Q526 28 512 14T475 -1Q453 -1 439 13T424 50V336Q424 397 394 428T312
460Q259 460 226 424T192 332V50Q192 28 178 14T141 -1Q119 -1 105 13T90 50V495Q90 518 104 532T141 546Q163 546 177 533T192 497Q218 523 254 537T332 552Q383 552 423 532T490 473Q520 510 565 531T665 552Q752 552 805 495Z" />
<glyph unicode="n" glyph-name="n" horiz-adv-x="682" d="M431 552T486 522T572 435T603 296V50Q603 28 589 14T552 -1Q530 -1 516 13T501 50V296Q501 377 458 418T342 460Q300 460 266 443T212 397T192 332V50Q192 28 178 14T141 -1Q119 -1 105 13T90 50V496Q90
519 104 533T141 547Q164 547 178 533T192 496V485Q224 517 268 534T362 552Q431 552 486 522Z" />
<glyph unicode="o" glyph-name="o" horiz-adv-x="675" d="M417 551T479 516T577 417T613 273Q613 193 578 130T481 32T338 -4Q258 -4 195 31T97 130T62 273Q62 354 97 417T195 515T338 551Q417 551 479 516ZM287 461T247 437T183 370T160 273Q160 219 183 177T246
110T338 86Q389 86 429 110T492 176T515 273Q515 327 493 370T430 437T338 461Q287 461 247 437Z" />
<glyph unicode="p" glyph-name="p" horiz-adv-x="703" d="M442 551T505 515T605 415T641 273Q641 195 608 132T516 32T385 -4Q327 -4 277 20T192 87V-183Q192 -206 178 -220T141 -234Q119 -234 105 -220T90 -183V273Q90 351 126 414T225 514T365 551Q442 551 505
515ZM415 86T455 110T519 177T543 273Q543 326 520 369T456 436T365 461Q315 461 275 437T211 369T188 273Q188 220 211 178T274 111T365 86Q415 86 455 110Z" />
<glyph unicode="q" glyph-name="q" horiz-adv-x="703" d="M415 551T477 515T576 415T613 273V-183Q613 -206 599 -220T562 -234Q540 -234 526 -220T511 -183V87Q476 44 426 20T318 -4Q246 -4 188 32T96 131T62 273Q62 351 98 414T197 514T338 551Q415 551 477
515ZM388 86T428 110T492 177T515 273Q515 326 492 369T429 436T338 461Q288 461 248 437T184 369T160 273Q160 220 183 178T247 111T338 86Q388 86 428 110Z" />
<glyph unicode="r" glyph-name="r" horiz-adv-x="486" d="M411 553T441 537T471 497Q471 490 470 487Q461 455 430 455Q425 455 415 457Q375 464 350 464Q278 464 234 431T190 342V50Q190 26 178 13T140 0Q116 0 103 12T90 50V497Q90 521 103 534T140 547Q190
547 190 497V478Q220 513 264 533T358 553Q411 553 441 537Z" />
<glyph unicode="s" glyph-name="s" horiz-adv-x="543" d="M347 551T398 530T480 472Q493 456 493 440Q493 423 476 409Q465 401 448 401Q422 401 401 420Q376 443 348 452T280 462Q234 462 205 447T175 403Q175 383 185 370T223 345T304 322Q413 300 458 261T504
160Q504 114 479 77T406 18T289 -4Q221 -4 161 17T67 72Q54 85 54 103Q54 127 74 142Q93 156 109 156Q129 156 147 138Q166 117 204 102T285 86Q342 86 373 105T405 156Q405 187 374 207T269 242Q77 279 77 400Q77 449 106 483T182 534T282 551Q347 551 398 530Z"
/>
<glyph unicode="t" glyph-name="t" horiz-adv-x="401" d="M341 100T353 86T366 50Q366 28 350 14T307 0H289Q240 0 200 25T136 95T113 194V441H67Q46 441 33 453T20 483Q20 503 33 515T67 527H113V671Q113 693 127 707T163 721Q185 721 199 707T213 671V527H298Q319
527 332 515T345 483Q345 465 332 453T298 441H213V194Q213 154 235 127T289 100H323Q341 100 353 86Z" />
<glyph unicode="u" glyph-name="u" horiz-adv-x="682" d="M564 548T578 534T592 497V51Q592 29 578 15T541 0Q519 0 505 14T490 51V62Q458 30 414 13T320 -5Q251 -5 196 25T110 112T79 251V497Q79 519 93 533T130 548Q152 548 166 534T181 497V251Q181 170 224
129T340 87Q382 87 416 104T470 150T490 215V497Q490 520 504 534T541 548Q564 548 578 534Z" />
<glyph unicode="v" glyph-name="v" horiz-adv-x="548" d="M524 534T531 524T538 500Q538 491 533 481L321 34Q306 1 275 1Q258 1 247 8T227 34L15 481Q11 489 11 499Q11 526 39 540Q48 545 60 545Q72 545 83 539T100 520L274 145L446 520Q452 532 463 538T488
545Q501 545 511 540Q524 534 531 524Z" />
<glyph unicode="w" glyph-name="w" horiz-adv-x="728" d="M692 547T702 536T713 506Q713 490 708 477L560 33Q555 19 542 10T513 0Q496 0 483 9T465 33L367 396L264 33Q259 19 246 10T216 0Q200 0 187 9T168 33L20 477Q16 490 16 505Q16 547 58 547Q77 547 89
536T110 501L218 164L320 509Q325 526 337 536T370 547Q389 547 401 537T419 509L509 157L619 501Q633 547 671 547Q692 547 702 536Z" />
<glyph unicode="x" glyph-name="x" horiz-adv-x="557" d="M519 62T519 42Q519 24 507 12T474 0Q450 0 438 16L279 206L128 16Q113 0 92 0Q72 0 61 12T49 42Q49 62 63 79L218 273L53 468Q38 486 38 506Q38 523 49 535T82 547Q106 547 120 530L284 334L431 530Q444
547 468 547Q488 547 499 535T511 504Q511 482 497 464L346 267L505 77Q519 62 519 42Z" />
<glyph unicode="y" glyph-name="y" horiz-adv-x="539" d="M539 530T539 503Q539 493 533 479L227 -209Q215 -240 188 -240Q178 -240 164 -234Q134 -221 134 -195Q134 -183 140 -171L240 54L15 481Q10 490 10 502Q10 515 18 526T39 543Q48 547 59 547Q87 547 101
519L284 155L445 518Q458 547 484 547Q497 547 508 542Q539 530 539 503Z" />
<glyph unicode="z" glyph-name="z" horiz-adv-x="540" d="M500 94T500 47Q500 0 453 0H112Q65 0 65 47Q65 67 74 79L357 453H102Q55 453 55 500Q55 547 102 547H443Q490 547 490 500Q490 480 481 468L199 94H453Q500 94 500 47Z" />
<glyph unicode="{" glyph-name="braceleft" horiz-adv-x="391" d="M249 -132T310 -132Q332 -132 346 -146T360 -183Q360 -205 346 -219T310 -234Q147 -234 147 -71V162Q147 223 87 223Q65 223 51 237T36 273Q36 295 50 309T87 324Q147 324 147 385V618Q147 781
310 781Q332 781 346 766T360 729Q360 707 346 693T310 679Q249 679 249 618V385Q249 316 217 273Q249 232 249 162V-71Q249 -132 310 -132Z" />
<glyph unicode="|" glyph-name="bar" horiz-adv-x="391" d="M147 752T161 766T198 781Q220 781 234 767T249 730V-183Q249 -205 235 -219T198 -234Q176 -234 162 -220T147 -183V730Q147 752 161 766Z" />
<glyph unicode="}" glyph-name="braceright" horiz-adv-x="391" d="M142 -132T81 -132Q59 -132 45 -146T31 -183Q31 -205 45 -219T81 -234Q244 -234 244 -71V162Q244 223 304 223Q326 223 340 237T355 273Q355 295 341 309T304 324Q244 324 244 385V618Q244 781
81 781Q59 781 45 766T31 729Q31 707 45 693T81 679Q142 679 142 618V385Q142 316 174 273Q142 232 142 162V-71Q142 -132 81 -132Z" />
<glyph unicode="~" glyph-name="asciitilde" horiz-adv-x="469" d="M199 436T220 428T269 406Q293 392 304 388T329 383Q352 383 369 400Q380 411 388 416T406 421Q417 421 428 414Q444 404 444 381Q444 363 433 349Q395 302 332 302Q302 302 279 310T230 333Q188
356 164 356Q149 356 138 351T116 329Q96 302 71 302Q63 302 51 307Q43 311 38 320T33 340Q33 355 42 368Q65 401 98 418T171 436Q199 436 220 428Z" />
<glyph unicode="&#xa0;" glyph-name="uni00A0" horiz-adv-x="293" />
<glyph unicode="&#xa1;" glyph-name="exclamdown" horiz-adv-x="288" d="M118 -203T132 -218T169 -233Q191 -233 205 -218T220 -181V312Q220 333 205 348T169 363Q148 363 133 348T118 312V-181Q118 -203 132 -218ZM197 409T217 429T238 479Q238 508 218 528T169
548Q141 548 121 528T100 479Q100 450 120 430T169 409Q197 409 217 429Z" />
<glyph unicode="&#xa2;" glyph-name="cent" horiz-adv-x="601" d="M530 110T530 90Q530 75 518 63Q446 -4 338 -4Q294 -4 248 9L217 -74Q208 -96 186 -96Q173 -96 164 -88T154 -67Q154 -61 157 -53L190 35Q130 71 96 133T62 273Q62 353 96 416T193 515T333 551Q363
551 384 547L415 629Q423 650 444 650Q457 650 466 641T476 621Q476 617 474 611L443 528Q488 507 529 461Q539 450 539 435Q539 413 517 398Q507 391 494 391Q471 391 455 409Q434 432 411 443L280 95Q307 86 338 86Q406 86 448 121Q467 135 485 135Q499 135 511
126Q530 110 530 90ZM160 227T177 189T224 125L351 460Q345 461 333 461Q256 461 208 410T160 273Q160 227 177 189Z" />
<glyph unicode="&#xa3;" glyph-name="sterling" horiz-adv-x="508" d="M425 123Q435 143 441 152Q458 179 485 179Q507 179 522 164T537 127Q537 114 531 103L495 31Q479 0 448 0H127Q102 0 89 14T75 51Q75 64 79 72Q130 193 131 300H89Q67 300 53 315T38 353Q38
375 52 389T89 404H121Q94 471 85 504T75 578Q75 633 102 679T176 753T277 780Q336 780 384 758T466 690Q476 677 476 659Q476 637 462 622T424 607Q403 607 393 620Q389 624 368 644T326 673T281 682Q233 682 206 652T179 572Q179 510 227 404H353Q375 404 389
390T404 353Q404 330 390 315T353 300H234Q232 200 201 104H416L425 123Z" />
<glyph unicode="&#xa4;" glyph-name="currency" horiz-adv-x="532" d="M404 583T425 583Q451 583 469 566T487 522Q487 495 469 478L440 451Q460 413 460 364Q460 316 440 276L470 244Q487 227 487 201Q487 175 470 158T427 140Q406 140 384 155L356 188Q313 167
267 167Q225 167 181 186L150 158Q131 140 106 140Q80 140 63 157T45 201Q45 226 63 244L94 272Q72 316 72 362Q72 408 93 448L63 479Q45 496 45 522Q45 548 62 565T106 583Q129 583 148 566L178 534Q219 556 266 556Q312 556 352 535L384 565Q404 583 425 583ZM229
453T202 426T175 361Q175 325 201 298T266 270Q304 270 330 297T357 361Q357 400 330 426T266 453Q229 453 202 426Z" />
<glyph unicode="&#xa5;" glyph-name="yen" horiz-adv-x="670" d="M640 781T652 767T665 733Q665 716 655 700L444 375H496Q519 375 533 363T548 330Q548 309 534 297T496 285H386V235H496Q519 235 533 223T548 190Q548 169 534 157T496 145H386V52Q386 30 371
15T334 0Q313 0 298 15T283 52V145H174Q151 145 137 157T123 190Q123 211 137 223T174 235H283V285H174Q151 285 137 297T123 330Q123 351 137 363T174 375H225L16 700Q5 717 5 732Q5 753 20 767T57 781Q73 781 83 774T103 752L337 381L575 756Q591 781 621 781Q640
781 652 767Z" />
<glyph unicode="&#xa6;" glyph-name="brokenbar" horiz-adv-x="234" d="M71 814T85 828T122 843Q144 843 158 829T173 792V459Q173 437 159 423T122 408Q100 408 86 422T71 459V792Q71 814 85 828ZM71 173T85 187T122 202Q144 202 158 188T173 151V-183Q173 -205
159 -219T122 -234Q100 -234 86 -220T71 -183V151Q71 173 85 187Z" />
<glyph unicode="&#xa7;" glyph-name="section" horiz-adv-x="469" d="M296 782T342 754T417 680T445 578Q445 555 430 540T393 525Q371 525 356 540T341 578Q341 618 311 648T241 678Q201 678 171 649T141 578Q141 536 170 507T241 478Q296 478 343 451T417 376T445
274Q445 187 377 122Q445 57 445 -29Q445 -84 417 -131T343 -206T241 -234Q186 -234 139 -206T65 -131T37 -29Q37 -7 52 8T90 23Q112 23 126 8T141 -29Q141 -70 170 -99T241 -129Q281 -129 311 -100T341 -29Q341 11 311 40T241 70Q186 70 139 97T65 171T37 274Q37
357 104 426Q68 462 53 498T37 578Q37 633 64 679T139 754T241 782Q296 782 342 754ZM200 374T171 345T141 274Q141 232 170 204T241 175Q281 175 311 204T341 274Q341 315 311 344T241 374Q200 374 171 345Z" />
<glyph unicode="&#xa8;" glyph-name="dieresis" horiz-adv-x="469" d="M149 734T167 716T185 674Q185 649 167 632T125 614Q99 614 82 631T64 674Q64 698 82 716T125 734Q149 734 167 716ZM371 734T389 716T407 674Q407 649 389 632T347 614Q322 614 305 631T287
674Q287 698 304 716T347 734Q371 734 389 716Z" />
<glyph unicode="&#xa9;" glyph-name="copyright" horiz-adv-x="859" d="M542 781T631 729T773 587T826 391Q826 283 773 193T631 52T436 0Q329 0 240 51T98 192T45 391Q45 497 97 586T238 728T436 781Q542 781 631 729ZM350 702T279 660T166 547T124 392Q124 308
165 237T278 124T434 82Q518 82 589 124T702 237T744 392Q744 476 702 547T589 660T434 702Q350 702 279 660ZM537 639T605 559Q615 546 615 534Q615 513 594 498Q584 491 572 491Q552 491 537 508Q516 531 492 541T438 552Q374 552 336 508T297 393Q297 323 337
279T442 234Q498 234 531 263Q548 277 565 277Q579 277 589 268Q607 253 607 233Q607 219 595 207Q534 148 442 148Q375 148 322 179T238 267T207 393Q207 464 236 520T318 607T438 639Q537 639 605 559Z" />
<glyph unicode="&#xaa;" glyph-name="ordfeminine" horiz-adv-x="481" d="M295 788T340 762T412 691T438 589V435Q438 413 424 399T390 384Q370 384 358 398T346 433Q303 390 239 390Q183 390 138 416T66 487T40 589Q40 645 66 690T137 762T239 788Q295 788 340
762ZM283 488T311 517T340 589Q340 633 312 661T239 690Q196 690 167 662T138 589Q138 546 167 517T239 488Q283 488 311 517Z" />
<glyph unicode="&#xab;" glyph-name="guillemotleft" horiz-adv-x="469" d="M250 64T250 51Q250 30 236 15T199 0Q184 0 172 8T152 31L44 247Q37 263 37 273Q37 285 43 297L152 515Q167 546 199 546Q221 546 235 532T250 496Q250 482 246 474L146 273L246 72Q250
64 250 51ZM437 62T437 51Q437 30 423 15T386 0Q371 0 359 8T339 31L231 247Q224 260 224 273Q224 285 230 297L339 515Q352 546 386 546Q408 546 422 532T437 496Q437 484 432 474L332 273L432 72Q437 62 437 51Z" />
<glyph unicode="&#xac;" glyph-name="logicalnot" horiz-adv-x="547" d="M67 445T53 459T38 496Q38 517 52 532T89 547H459Q481 547 496 532T511 496V348Q511 326 496 311T459 296Q439 296 424 311T409 348V445H89Q67 445 53 459Z" />
<glyph unicode="&#xad;" glyph-name="uni00AD" horiz-adv-x="391" d="M332 324T346 310T360 273Q360 251 346 237T310 223H87Q65 223 51 237T36 273Q36 295 50 309T87 324H310Q332 324 346 310Z" />
<glyph unicode="&#xae;" glyph-name="registered" horiz-adv-x="859" d="M542 781T631 729T773 587T826 391Q826 283 773 193T631 52T436 0Q329 0 240 51T98 192T45 391Q45 497 97 586T238 728T436 781Q542 781 631 729ZM518 82T589 124T702 237T744 392Q744 476
702 547T589 660T434 702Q350 702 279 660T166 547T124 392Q124 308 165 237T278 124T434 82Q518 82 589 124ZM598 225Q606 211 606 199Q606 185 596 176T569 167Q557 167 547 172T532 185L440 340H431H368V205Q368 188 358 178T329 167Q311 167 300 177T289 205V597Q289
614 301 624T332 635H431Q503 635 549 594T596 489Q596 447 575 414T518 360L598 225ZM368 410H437Q473 410 494 431T516 489Q516 525 495 545T437 565H368V410Z" />
<glyph unicode="&#xaf;" glyph-name="overscore" horiz-adv-x="547" d="M422 737T436 726T451 693Q451 671 437 659T399 647H149Q126 647 112 659T98 693Q98 714 112 725T149 737H399Q422 737 436 726Z" />
<glyph unicode="&#xb0;" glyph-name="degree" horiz-adv-x="469" d="M290 770T336 743T409 670T436 570Q436 517 409 471T336 398T236 371Q182 371 137 398T64 471T37 570Q37 623 64 669T136 742T236 770Q290 770 336 743ZM196 667T168 639T139 570Q139 530 167
502T236 473Q276 473 304 501T333 570Q333 610 305 638T236 667Q196 667 168 639Z" />
<glyph unicode="&#xb1;" glyph-name="plusminus" horiz-adv-x="547" d="M223 591T238 606T274 621Q296 621 310 607T325 570V436H459Q480 436 495 421T511 384Q511 363 496 348T459 333H325V199Q325 177 311 163T274 148Q252 148 238 162T223 199V333H89Q67 333
53 348T38 385Q38 407 52 421T89 436H223V570Q223 591 238 606ZM482 102T496 88T511 51Q511 29 497 15T460 0H89Q67 0 53 14T38 51Q38 73 52 87T89 102H460Q482 102 496 88Z" />
<glyph unicode="&#xb2;" glyph-name="uni00B2" horiz-adv-x="376" d="M307 468T319 458T331 429Q331 409 319 398T287 386H90Q71 386 59 398T46 430Q46 449 57 461L209 616Q237 645 237 672Q237 692 222 706T180 721Q150 721 132 703T113 660Q113 640 104 629T76
618Q60 618 50 630T40 660Q40 720 78 757T181 794Q243 794 279 759T316 669Q316 638 301 617T258 565L162 468H287Q307 468 319 458Z" />
<glyph unicode="&#xb3;" glyph-name="uni00B3" horiz-adv-x="384" d="M248 796T285 763T322 679Q322 653 306 631T260 595Q298 585 318 558T339 496Q339 444 297 410T194 376Q129 376 87 411T45 501Q45 521 57 533T89 545Q107 545 118 533T129 501Q129 480 145
467T192 453Q218 453 236 465T254 501Q254 525 239 540T203 555Q181 555 169 565T156 593Q156 612 167 622T198 633Q220 633 232 643T245 672Q245 692 229 704T191 716Q166 716 149 706T128 678Q126 663 116 653T93 642Q75 642 64 653T52 682Q52 730 92 763T192
796Q248 796 285 763Z" />
<glyph unicode="&#xb4;" glyph-name="acute" horiz-adv-x="273" d="M176 781T197 781Q219 781 233 766T248 729Q248 707 234 694L137 597Q123 583 102 583Q80 583 66 597T51 634Q51 655 63 668L161 766Q176 781 197 781Z" />
<glyph unicode="&#xb5;" glyph-name="uni00B5" horiz-adv-x="682" d="M564 548T578 534T592 497V51Q592 29 578 15T541 0Q519 0 505 14T490 51V64Q462 31 423 13T340 -5Q292 -5 251 17T181 80V-183Q181 -206 167 -220T130 -234Q108 -234 94 -220T79 -183V497Q79
520 93 534T130 548Q153 548 167 534T181 497V251Q181 179 225 133T340 87Q406 87 448 123T490 215V497Q490 520 504 534T541 548Q564 548 578 534Z" />
<glyph unicode="&#xb6;" glyph-name="paragraph" horiz-adv-x="593" d="M332 29T318 15T281 0Q259 0 245 14T230 51V382Q178 385 136 412T70 484T45 581Q45 637 71 683T142 755T244 781H496Q519 781 533 767T548 729Q548 713 538 700T511 681V51Q511 29 496 15T459
0Q438 0 424 14T409 51V679H332V51Q332 29 318 15Z" />
<glyph unicode="&#xb7;" glyph-name="middot" horiz-adv-x="195" d="M126 436T146 416T167 366Q167 338 147 318T98 297Q70 297 50 317T29 366Q29 395 49 415T98 436Q126 436 146 416Z" />
<glyph unicode="&#xb8;" glyph-name="cedilla" horiz-adv-x="313" d="M259 -46T283 -69T307 -130Q307 -156 289 -180T237 -219T159 -234Q100 -234 61 -209T22 -150Q22 -131 36 -117T69 -102Q82 -102 90 -107T103 -127Q110 -144 125 -153T160 -162Q180 -162 193
-153T206 -127Q206 -109 196 -98T161 -83Q136 -79 124 -69T111 -41Q111 -28 116 -15L126 13Q140 54 183 54Q202 54 214 44T227 18Q227 11 222 -1L207 -35Q259 -46 283 -69Z" />
<glyph unicode="&#xb9;" glyph-name="uni00B9" horiz-adv-x="302" d="M93 662T73 662Q44 662 36 684Q33 692 33 698Q33 712 43 723T70 740L181 777Q192 781 202 781Q234 781 234 729V437Q234 414 223 400T190 386Q170 386 159 400T148 437V680L120 671Q93 662 73 662Z" />
<glyph unicode="&#xba;" glyph-name="ordmasculine" horiz-adv-x="478" d="M295 788T340 762T412 691T438 589Q438 533 412 488T341 416T239 390Q183 390 138 416T66 487T40 589Q40 645 66 690T137 762T239 788Q295 788 340 762ZM196 690T167 662T138 589Q138
546 167 517T239 488Q283 488 311 517T340 589Q340 633 312 661T239 690Q196 690 167 662Z" />
<glyph unicode="&#xbb;" glyph-name="guillemotright" horiz-adv-x="469" d="M37 489T37 496Q37 517 52 531T88 546Q122 546 135 515L244 297Q250 285 250 273Q250 260 243 247L135 31Q128 16 116 8T88 0Q67 0 53 15T38 51Q38 63 42 72L142 273L42 474Q37 489
37 496ZM224 484T224 496Q224 518 238 532T275 546Q309 546 322 515L431 297Q437 285 437 273Q437 263 430 247L322 31Q315 16 303 8T275 0Q253 0 239 15T224 51Q224 63 229 72L329 273L229 474Q224 484 224 496Z" />
<glyph unicode="&#xbc;" glyph-name="onequarter" horiz-adv-x="794" d="M93 662T73 662Q44 662 36 684Q33 692 33 698Q33 712 43 723T70 740L181 777Q192 781 202 781Q234 781 234 729V437Q234 414 223 400T190 386Q170 386 159 400T148 437V680L120 671Q93 662
73 662ZM599 782T623 782Q638 782 649 772T660 746Q660 733 650 717L196 25Q179 0 158 0Q145 0 135 9T124 32Q124 45 130 53L580 753Q599 782 623 782ZM415 81T405 90T395 115Q395 127 406 143L597 391Q612 410 635 410Q652 410 664 400T677 375V153H708Q723 153
733 143T744 117Q744 101 734 91T708 81H677V26Q677 10 666 0T635 -10Q617 -10 606 0T595 26V81H431Q415 81 405 90ZM496 153H595V285L496 153Z" />
<glyph unicode="&#xbd;" glyph-name="onehalf" horiz-adv-x="885" d="M93 662T73 662Q44 662 36 684Q33 692 33 698Q33 712 43 723T70 740L181 777Q192 781 202 781Q234 781 234 729V437Q234 414 223 400T190 386Q170 386 159 400T148 437V680L120 671Q93 662
73 662ZM647 782T671 782Q686 782 697 772T708 746Q708 733 698 717L244 25Q227 0 206 0Q193 0 183 9T172 32Q172 45 178 53L628 753Q647 782 671 782ZM806 82T818 72T830 43Q830 23 818 12T786 0H589Q570 0 558 12T545 44Q545 63 556 75L708 230Q736 259 736 286Q736
306 721 320T679 335Q649 335 631 317T612 274Q612 254 603 243T575 232Q559 232 549 244T539 274Q539 334 577 371T680 408Q742 408 778 373T815 283Q815 252 800 231T757 179L661 82H786Q806 82 818 72Z" />
<glyph unicode="&#xbe;" glyph-name="threequarters" horiz-adv-x="863" d="M248 796T285 763T322 679Q322 653 306 631T260 595Q298 585 318 558T339 496Q339 444 297 410T194 376Q129 376 87 411T45 501Q45 521 57 533T89 545Q107 545 118 533T129 501Q129 480
145 467T192 453Q218 453 236 465T254 501Q254 525 239 540T203 555Q181 555 169 565T156 593Q156 612 167 622T198 633Q220 633 232 643T245 672Q245 692 229 704T191 716Q166 716 149 706T128 678Q126 663 116 653T93 642Q75 642 64 653T52 682Q52 730 92 763T192
796Q248 796 285 763ZM647 782T671 782Q686 782 697 772T708 746Q708 733 698 717L244 25Q227 0 206 0Q193 0 183 9T172 32Q172 45 178 53L628 753Q647 782 671 782ZM479 81T469 90T459 115Q459 127 470 143L661 391Q676 410 699 410Q716 410 728 400T741 375V153H772Q787
153 797 143T808 117Q808 101 798 91T772 81H741V26Q741 10 730 0T699 -10Q681 -10 670 0T659 26V81H495Q479 81 469 90ZM560 153H659V285L560 153Z" />
<glyph unicode="&#xbf;" glyph-name="questiondown" horiz-adv-x="547" d="M196 -176T145 -149T64 -72T35 41Q35 95 52 135T98 207T173 276Q197 295 208 327T219 385Q219 407 233 421T270 436Q292 436 306 422T321 385Q321 343 300 297T239 217Q201 185 182 164T149
113T135 41Q135 -10 169 -46T260 -82Q331 -82 367 -44T404 61Q404 83 418 97T455 112Q477 112 491 98T506 61Q506 -8 476 -62T389 -146T260 -176Q196 -176 145 -149ZM241 482T221 502T200 552Q200 580 220 600T270 621Q298 621 318 601T339 552Q339 523 319 503T270
482Q241 482 221 502Z" />
<glyph unicode="&#xc0;" glyph-name="Agrave" horiz-adv-x="703" d="M689 60T689 51Q689 30 674 15T637 0Q622 0 609 8T589 32L533 172H174L117 32Q110 17 97 9T69 0Q47 0 33 15T18 52Q18 62 23 75L304 746Q319 781 353 781Q389 781 402 746L684 73Q689 60 689
51ZM498 258L355 614L209 258H498ZM203 991T203 1013Q203 1035 217 1050T253 1065Q274 1065 290 1050L387 952Q400 939 400 918Q400 896 386 882T349 867Q327 867 314 881L216 978Q203 991 203 1013Z" />
<glyph unicode="&#xc1;" glyph-name="Aacute" horiz-adv-x="703" d="M689 60T689 51Q689 30 674 15T637 0Q622 0 609 8T589 32L533 172H174L117 32Q110 17 97 9T69 0Q47 0 33 15T18 52Q18 62 23 75L304 746Q319 781 353 781Q389 781 402 746L684 73Q689 60 689
51ZM498 258L355 614L209 258H498ZM430 1065T451 1065Q473 1065 487 1050T502 1013Q502 991 488 978L391 881Q377 867 356 867Q333 867 319 881T305 918Q305 939 317 952L415 1050Q430 1065 451 1065Z" />
<glyph unicode="&#xc2;" glyph-name="Acircumflex" horiz-adv-x="703" d="M689 60T689 51Q689 30 674 15T637 0Q622 0 609 8T589 32L533 172H174L117 32Q110 17 97 9T69 0Q47 0 33 15T18 52Q18 62 23 75L304 746Q319 781 353 781Q389 781 402 746L684 73Q689 60
689 51ZM498 258L355 614L209 258H498ZM259 849T241 849Q219 849 205 860T190 890Q190 916 214 934L326 1007Q339 1015 352 1015Q367 1015 379 1007L490 934Q514 916 514 890Q514 872 500 861T464 849Q446 849 431 860L352 916L273 860Q259 849 241 849Z" />
<glyph unicode="&#xc3;" glyph-name="Atilde" horiz-adv-x="703" d="M689 60T689 51Q689 30 674 15T637 0Q622 0 609 8T589 32L533 172H174L117 32Q110 17 97 9T69 0Q47 0 33 15T18 52Q18 62 23 75L304 746Q319 781 353 781Q389 781 402 746L684 73Q689 60 689
51ZM498 258L355 614L209 258H498ZM316 1009T334 999T363 978T377 965Q398 947 411 947Q422 947 433 962Q451 988 477 988Q485 988 493 985Q506 979 513 969T520 947Q520 937 513 925Q494 892 472 877T422 862Q378 862 335 903Q320 917 313 922T297 927Q287 927
281 921T265 899Q258 888 247 882T224 875Q216 875 207 878Q195 883 188 893T181 915Q181 926 187 936Q228 1009 289 1009Q316 1009 334 999Z" />
<glyph unicode="&#xc4;" glyph-name="Adieresis" horiz-adv-x="703" d="M689 60T689 51Q689 30 674 15T637 0Q622 0 609 8T589 32L533 172H174L117 32Q110 17 97 9T69 0Q47 0 33 15T18 52Q18 62 23 75L304 746Q319 781 353 781Q389 781 402 746L684 73Q689 60
689 51ZM498 258L355 614L209 258H498ZM265 985T283 967T301 925Q301 900 283 883T241 865Q215 865 198 882T180 925Q180 949 198 967T241 985Q265 985 283 967ZM487 985T505 967T523 925Q523 900 505 883T463 865Q437 865 420 882T403 925Q403 949 420 967T463
985Q487 985 505 967Z" />
<glyph unicode="&#xc5;" glyph-name="Aring" horiz-adv-x="703" d="M689 60T689 51Q689 30 674 15T637 0Q622 0 609 8T589 32L533 172H174L117 32Q110 17 97 9T69 0Q47 0 33 15T18 52Q18 62 23 75L304 746Q319 781 353 781Q389 781 402 746L684 73Q689 60 689
51ZM498 258L355 614L209 258H498ZM399 1035T429 1005T459 927Q459 880 429 850T352 820Q305 820 275 850T245 927Q245 974 275 1004T352 1035Q399 1035 429 1005ZM330 979T315 965T300 927Q300 905 314 891T352 876Q375 876 389 890T403 927Q403 950 389 964T352
979Q330 979 315 965Z" />
<glyph unicode="&#xc6;" glyph-name="AE" horiz-adv-x="1001" d="M928 96T942 83T956 49Q956 27 942 14T905 0H493Q471 0 456 15T441 52V172H205L119 32Q100 0 71 0Q49 0 34 15T18 51Q18 64 25 75L445 749Q465 781 500 781H905Q928 781 942 768T956 732Q956 711
942 698T905 685H545V442H792Q814 442 828 429T843 394Q843 373 829 360T792 346H545V96H905Q928 96 942 83ZM441 258V562L258 258H441Z" />
<glyph unicode="&#xc7;" glyph-name="Ccedilla" horiz-adv-x="777" d="M526 791T581 771T694 705Q706 696 710 687T714 664Q714 644 700 631T666 618Q647 618 631 631Q590 666 551 681T450 697Q372 697 307 656T203 545T164 391Q164 307 202 237T306 126T450 85Q546
85 634 151Q651 163 667 163Q686 163 698 150T711 114Q711 93 695 77Q587 -10 450 -10Q343 -10 255 43T115 188T64 391Q64 501 115 592T254 737T450 791Q526 791 581 771ZM538 -46T562 -69T586 -130Q586 -156 568 -180T516 -219T438 -234Q379 -234 340 -209T301
-150Q301 -131 315 -117T348 -102Q361 -102 369 -107T382 -127Q389 -144 404 -153T439 -162Q459 -162 472 -153T485 -127Q485 -109 475 -98T440 -83Q415 -79 403 -69T390 -41Q390 -28 395 -15L405 13Q419 54 462 54Q481 54 493 44T506 18Q506 11 501 -1L486 -35Q538
-46 562 -69Z" />
<glyph unicode="&#xc8;" glyph-name="Egrave" horiz-adv-x="700" d="M627 96T641 83T655 49Q655 27 641 14T604 0H152Q130 0 115 15T100 52V729Q100 752 115 766T152 781H604Q627 781 641 768T655 732Q655 711 641 698T604 685H204V442H491Q513 442 527 429T542
394Q542 373 528 360T491 346H204V96H604Q627 96 641 83ZM241 991T241 1013Q241 1035 255 1050T291 1065Q312 1065 328 1050L425 952Q438 939 438 918Q438 896 424 882T387 867Q365 867 352 881L254 978Q241 991 241 1013Z" />
<glyph unicode="&#xc9;" glyph-name="Eacute" horiz-adv-x="700" d="M627 96T641 83T655 49Q655 27 641 14T604 0H152Q130 0 115 15T100 52V729Q100 752 115 766T152 781H604Q627 781 641 768T655 732Q655 711 641 698T604 685H204V442H491Q513 442 527 429T542
394Q542 373 528 360T491 346H204V96H604Q627 96 641 83ZM468 1065T489 1065Q511 1065 525 1050T540 1013Q540 991 526 978L429 881Q415 867 394 867Q371 867 357 881T343 918Q343 939 355 952L453 1050Q468 1065 489 1065Z" />
<glyph unicode="&#xca;" glyph-name="Ecircumflex" horiz-adv-x="700" d="M627 96T641 83T655 49Q655 27 641 14T604 0H152Q130 0 115 15T100 52V729Q100 752 115 766T152 781H604Q627 781 641 768T655 732Q655 711 641 698T604 685H204V442H491Q513 442 527 429T542
394Q542 373 528 360T491 346H204V96H604Q627 96 641 83ZM297 849T279 849Q257 849 243 860T228 890Q228 916 252 934L364 1007Q377 1015 390 1015Q405 1015 417 1007L528 934Q552 916 552 890Q552 872 538 861T502 849Q484 849 469 860L390 916L311 860Q297 849
279 849Z" />
<glyph unicode="&#xcb;" glyph-name="Edieresis" horiz-adv-x="700" d="M627 96T641 83T655 49Q655 27 641 14T604 0H152Q130 0 115 15T100 52V729Q100 752 115 766T152 781H604Q627 781 641 768T655 732Q655 711 641 698T604 685H204V442H491Q513 442 527 429T542
394Q542 373 528 360T491 346H204V96H604Q627 96 641 83ZM303 985T321 967T339 925Q339 900 321 883T279 865Q253 865 236 882T218 925Q218 949 236 967T279 985Q303 985 321 967ZM525 985T543 967T561 925Q561 900 543 883T501 865Q475 865 458 882T441 925Q441
949 458 967T501 985Q525 985 543 967Z" />
<glyph unicode="&#xcc;" glyph-name="Igrave" horiz-adv-x="304" d="M100 752T115 766T152 781Q175 781 189 767T204 729V52Q204 30 190 15T152 0Q130 0 115 15T100 52V729Q100 752 115 766ZM3 991T3 1013Q3 1035 17 1050T53 1065Q74 1065 90 1050L187 952Q200
939 200 918Q200 896 186 882T149 867Q127 867 114 881L16 978Q3 991 3 1013Z" />
<glyph unicode="&#xcd;" glyph-name="Iacute" horiz-adv-x="304" d="M100 752T115 766T152 781Q175 781 189 767T204 729V52Q204 30 190 15T152 0Q130 0 115 15T100 52V729Q100 752 115 766ZM230 1065T251 1065Q273 1065 287 1050T302 1013Q302 991 288 978L191
881Q177 867 156 867Q133 867 119 881T105 918Q105 939 117 952L215 1050Q230 1065 251 1065Z" />
<glyph unicode="&#xce;" glyph-name="Icircumflex" horiz-adv-x="304" d="M100 752T115 766T152 781Q175 781 189 767T204 729V52Q204 30 190 15T152 0Q130 0 115 15T100 52V729Q100 752 115 766ZM59 849T41 849Q19 849 5 860T-10 890Q-10 916 14 934L126 1007Q139
1015 152 1015Q167 1015 179 1007L290 934Q314 916 314 890Q314 872 300 861T264 849Q246 849 231 860L152 916L73 860Q59 849 41 849Z" />
<glyph unicode="&#xcf;" glyph-name="Idieresis" horiz-adv-x="304" d="M100 752T115 766T152 781Q175 781 189 767T204 729V52Q204 30 190 15T152 0Q130 0 115 15T100 52V729Q100 752 115 766ZM65 985T83 967T101 925Q101 900 83 883T41 865Q15 865 -2 882T-20
925Q-20 949 -2 967T41 985Q65 985 83 967ZM287 985T305 967T323 925Q323 900 305 883T263 865Q237 865 220 882T203 925Q203 949 220 967T263 985Q287 985 305 967Z" />
<glyph unicode="&#xd0;" glyph-name="Eth" horiz-adv-x="783" d="M446 781T534 731T671 593T720 391Q720 278 671 189T534 50T333 0H152Q130 0 115 15T100 52V346H50Q27 346 13 358T-1 391Q-1 412 13 424T50 436H100V729Q100 752 115 766T152 781H333Q446 781
534 731ZM416 92T481 130T583 236T620 391Q620 477 584 545T482 651T333 689H204V436H332Q355 436 369 424T384 391Q384 370 370 358T332 346H204V92H333Q416 92 481 130Z" />
<glyph unicode="&#xd1;" glyph-name="Ntilde" horiz-adv-x="830" d="M627 752T642 766T679 781Q701 781 715 767T730 729V52Q730 29 716 15T679 0Q668 0 657 4T639 18L203 598V52Q203 30 189 15T151 0Q129 0 115 14T100 52V729Q100 752 114 766T151 781Q162 781
173 776T191 762L627 182V729Q627 752 642 766ZM389 990T410 982T459 960Q483 946 494 942T519 937Q542 937 559 954Q570 965 578 970T596 975Q607 975 618 968Q634 958 634 935Q634 917 623 903Q585 856 522 856Q492 856 469 864T420 887Q378 910 354 910Q339
910 328 905T306 883Q286 856 261 856Q253 856 241 861Q233 865 228 874T223 894Q223 909 232 922Q255 955 288 972T361 990Q389 990 410 982Z" />
<glyph unicode="&#xd2;" glyph-name="Ograve" horiz-adv-x="921" d="M576 791T666 740T807 598T858 391Q858 275 808 184T667 41T461 -10Q345 -10 255 41T114 183T64 391Q64 507 114 598T254 740T461 791Q576 791 666 740ZM375 697T308 657T202 547T164 391Q164
305 202 235T308 125T461 84Q546 84 614 124T720 235T758 391Q758 477 720 547T615 657T461 697Q375 697 308 657ZM312 991T312 1013Q312 1035 326 1050T362 1065Q383 1065 399 1050L496 952Q509 939 509 918Q509 896 495 882T458 867Q436 867 423 881L325 978Q312
991 312 1013Z" />
<glyph unicode="&#xd3;" glyph-name="Oacute" horiz-adv-x="921" d="M576 791T666 740T807 598T858 391Q858 275 808 184T667 41T461 -10Q345 -10 255 41T114 183T64 391Q64 507 114 598T254 740T461 791Q576 791 666 740ZM375 697T308 657T202 547T164 391Q164
305 202 235T308 125T461 84Q546 84 614 124T720 235T758 391Q758 477 720 547T615 657T461 697Q375 697 308 657ZM539 1065T560 1065Q582 1065 596 1050T611 1013Q611 991 597 978L500 881Q486 867 465 867Q442 867 428 881T414 918Q414 939 426 952L524 1050Q539
1065 560 1065Z" />
<glyph unicode="&#xd4;" glyph-name="Ocircumflex" horiz-adv-x="921" d="M576 791T666 740T807 598T858 391Q858 275 808 184T667 41T461 -10Q345 -10 255 41T114 183T64 391Q64 507 114 598T254 740T461 791Q576 791 666 740ZM375 697T308 657T202 547T164 391Q164
305 202 235T308 125T461 84Q546 84 614 124T720 235T758 391Q758 477 720 547T615 657T461 697Q375 697 308 657ZM368 849T350 849Q328 849 314 860T299 890Q299 916 323 934L435 1007Q448 1015 461 1015Q476 1015 488 1007L599 934Q623 916 623 890Q623 872 609
861T573 849Q555 849 540 860L461 916L382 860Q368 849 350 849Z" />
<glyph unicode="&#xd5;" glyph-name="Otilde" horiz-adv-x="921" d="M576 791T666 740T807 598T858 391Q858 275 808 184T667 41T461 -10Q345 -10 255 41T114 183T64 391Q64 507 114 598T254 740T461 791Q576 791 666 740ZM375 697T308 657T202 547T164 391Q164
305 202 235T308 125T461 84Q546 84 614 124T720 235T758 391Q758 477 720 547T615 657T461 697Q375 697 308 657ZM435 990T456 982T505 960Q529 946 540 942T565 937Q588 937 605 954Q616 965 624 970T642 975Q653 975 664 968Q680 958 680 935Q680 917 669 903Q631
856 568 856Q538 856 515 864T466 887Q424 910 400 910Q385 910 374 905T352 883Q332 856 307 856Q299 856 287 861Q279 865 274 874T269 894Q269 909 278 922Q301 955 334 972T407 990Q435 990 456 982Z" />
<glyph unicode="&#xd6;" glyph-name="Odieresis" horiz-adv-x="921" d="M576 791T666 740T807 598T858 391Q858 275 808 184T667 41T461 -10Q345 -10 255 41T114 183T64 391Q64 507 114 598T254 740T461 791Q576 791 666 740ZM375 697T308 657T202 547T164 391Q164
305 202 235T308 125T461 84Q546 84 614 124T720 235T758 391Q758 477 720 547T615 657T461 697Q375 697 308 657ZM374 985T392 967T410 925Q410 900 392 883T350 865Q324 865 307 882T289 925Q289 949 307 967T350 985Q374 985 392 967ZM596 985T614 967T632 925Q632
900 614 883T572 865Q546 865 529 882T512 925Q512 949 529 967T572 985Q596 985 614 967Z" />
<glyph unicode="&#xd7;" glyph-name="multiply" horiz-adv-x="469" d="M363 547T385 547Q406 547 421 532T436 496Q436 477 421 460L309 348L421 235Q436 220 436 199Q436 177 421 163T385 148Q363 148 349 162L236 275L123 162Q109 148 88 148Q66 148 52 162T37
199Q37 221 51 235L164 348L51 460Q37 477 37 496Q37 517 51 532T88 547Q108 547 125 532L236 420L348 532Q363 547 385 547Z" />
<glyph unicode="&#xd8;" glyph-name="Oslash" horiz-adv-x="921" d="M813 601T835 535T858 391Q858 275 808 184T667 41T461 -10Q380 -10 311 15T190 88L110 8Q102 0 89 0Q75 0 67 9T58 31Q58 43 66 51L148 133Q64 239 64 391Q64 507 114 598T254 740T461 791Q540
791 607 767T727 697L804 773Q812 781 825 781Q838 781 847 772T857 751Q857 740 848 731L770 653Q813 601 835 535ZM375 697T308 657T202 547T164 391Q164 337 179 289T224 201L653 630Q614 662 565 679T461 697Q375 697 308 657ZM546 84T614 124T720 235T758
391Q758 447 742 496T695 585L265 155Q345 84 461 84Q546 84 614 124Z" />
<glyph unicode="&#xd9;" glyph-name="Ugrave" horiz-adv-x="845" d="M100 752T115 766T152 781Q175 781 189 767T204 729V262Q204 209 232 167T311 102T427 78Q489 78 538 101T614 167T642 262V729Q642 752 657 766T694 781Q716 781 730 767T745 729V262Q745 182
705 119T592 20T427 -16Q332 -16 258 19T142 118T100 262V729Q100 752 115 766ZM274 991T274 1013Q274 1035 288 1050T324 1065Q345 1065 361 1050L458 952Q471 939 471 918Q471 896 457 882T420 867Q398 867 385 881L287 978Q274 991 274 1013Z" />
<glyph unicode="&#xda;" glyph-name="Uacute" horiz-adv-x="845" d="M100 752T115 766T152 781Q175 781 189 767T204 729V262Q204 209 232 167T311 102T427 78Q489 78 538 101T614 167T642 262V729Q642 752 657 766T694 781Q716 781 730 767T745 729V262Q745 182
705 119T592 20T427 -16Q332 -16 258 19T142 118T100 262V729Q100 752 115 766ZM501 1065T522 1065Q544 1065 558 1050T573 1013Q573 991 559 978L462 881Q448 867 427 867Q404 867 390 881T376 918Q376 939 388 952L486 1050Q501 1065 522 1065Z" />
<glyph unicode="&#xdb;" glyph-name="Ucircumflex" horiz-adv-x="845" d="M100 752T115 766T152 781Q175 781 189 767T204 729V262Q204 209 232 167T311 102T427 78Q489 78 538 101T614 167T642 262V729Q642 752 657 766T694 781Q716 781 730 767T745 729V262Q745
182 705 119T592 20T427 -16Q332 -16 258 19T142 118T100 262V729Q100 752 115 766ZM330 849T312 849Q290 849 276 860T261 890Q261 916 285 934L397 1007Q410 1015 423 1015Q438 1015 450 1007L561 934Q585 916 585 890Q585 872 571 861T535 849Q517 849 502 860L423
916L344 860Q330 849 312 849Z" />
<glyph unicode="&#xdc;" glyph-name="Udieresis" horiz-adv-x="845" d="M100 752T115 766T152 781Q175 781 189 767T204 729V262Q204 209 232 167T311 102T427 78Q489 78 538 101T614 167T642 262V729Q642 752 657 766T694 781Q716 781 730 767T745 729V262Q745
182 705 119T592 20T427 -16Q332 -16 258 19T142 118T100 262V729Q100 752 115 766ZM336 985T354 967T372 925Q372 900 354 883T312 865Q286 865 269 882T251 925Q251 949 269 967T312 985Q336 985 354 967ZM558 985T576 967T594 925Q594 900 576 883T534 865Q508
865 491 882T474 925Q474 949 491 967T534 985Q558 985 576 967Z" />
<glyph unicode="&#xdd;" glyph-name="Yacute" horiz-adv-x="670" d="M640 781T652 767T665 733Q665 716 655 700L386 285V52Q386 30 371 15T334 0Q313 0 298 15T283 52V285L16 700Q5 717 5 732Q5 753 20 767T57 781Q73 781 83 774T103 752L337 381L575 756Q591
781 621 781Q640 781 652 767ZM413 1065T434 1065Q456 1065 470 1050T485 1013Q485 991 471 978L374 881Q360 867 339 867Q316 867 302 881T288 918Q288 939 300 952L398 1050Q413 1065 434 1065Z" />
<glyph unicode="&#xde;" glyph-name="Thorn" horiz-adv-x="623" d="M204 30T190 15T152 0Q130 0 115 15T100 52V729Q100 752 115 766T152 781Q175 781 189 767T204 729V635H352Q426 635 484 606T575 524T608 402Q608 335 576 284T485 205T352 177H204V52Q204 30
190 15ZM420 267T464 305T508 402Q508 464 464 504T352 545H204V267H352Q420 267 464 305Z" />
<glyph unicode="&#xdf;" glyph-name="germandbls" horiz-adv-x="547" d="M38 636T66 682T145 754T256 780Q314 780 358 756T428 691T453 598Q453 565 442 543T407 493Q390 474 381 459T372 425Q372 403 385 385T428 339Q470 299 492 266T514 182Q514 129 489 88T419
23T315 0Q282 0 247 13T189 49T166 97Q166 141 211 141Q224 141 232 136T252 120Q268 105 283 98T325 90Q367 90 390 115T414 182Q414 214 398 238T351 294Q317 328 300 355T282 422Q282 455 292 475T324 517Q344 538 353 555T363 600Q363 642 334 666T254 690Q206
690 174 659T142 578V51Q142 29 127 15T89 0Q67 0 53 14T38 51V578Q38 636 66 682Z" />
<glyph unicode="&#xe0;" glyph-name="agrave" horiz-adv-x="675" d="M415 551T477 515T576 415T613 273V50Q613 28 599 14T562 -1Q540 -1 526 13T511 50V87Q476 44 426 20T318 -4Q246 -4 188 32T96 131T62 273Q62 351 98 414T197 514T338 551Q415 551 477 515ZM388
86T428 110T492 177T515 273Q515 326 492 369T429 436T338 461Q288 461 248 437T184 369T160 273Q160 220 183 178T247 111T338 86Q388 86 428 110ZM189 757T189 779Q189 801 203 816T239 831Q260 831 276 816L373 718Q386 705 386 684Q386 662 372 648T335 633Q313
633 300 647L202 744Q189 757 189 779Z" />
<glyph unicode="&#xe1;" glyph-name="aacute" horiz-adv-x="675" d="M415 551T477 515T576 415T613 273V50Q613 28 599 14T562 -1Q540 -1 526 13T511 50V87Q476 44 426 20T318 -4Q246 -4 188 32T96 131T62 273Q62 351 98 414T197 514T338 551Q415 551 477 515ZM388
86T428 110T492 177T515 273Q515 326 492 369T429 436T338 461Q288 461 248 437T184 369T160 273Q160 220 183 178T247 111T338 86Q388 86 428 110ZM416 831T437 831Q459 831 473 816T488 779Q488 757 474 744L377 647Q363 633 342 633Q319 633 305 647T291 684Q291
705 303 718L401 816Q416 831 437 831Z" />
<glyph unicode="&#xe2;" glyph-name="acircumflex" horiz-adv-x="675" d="M415 551T477 515T576 415T613 273V50Q613 28 599 14T562 -1Q540 -1 526 13T511 50V87Q476 44 426 20T318 -4Q246 -4 188 32T96 131T62 273Q62 351 98 414T197 514T338 551Q415 551 477
515ZM388 86T428 110T492 177T515 273Q515 326 492 369T429 436T338 461Q288 461 248 437T184 369T160 273Q160 220 183 178T247 111T338 86Q388 86 428 110ZM245 615T227 615Q205 615 191 626T176 656Q176 682 200 700L312 773Q325 781 338 781Q353 781 365 773L476
700Q500 682 500 656Q500 638 486 627T450 615Q432 615 417 626L338 682L259 626Q245 615 227 615Z" />
<glyph unicode="&#xe3;" glyph-name="atilde" horiz-adv-x="675" d="M415 551T477 515T576 415T613 273V50Q613 28 599 14T562 -1Q540 -1 526 13T511 50V87Q476 44 426 20T318 -4Q246 -4 188 32T96 131T62 273Q62 351 98 414T197 514T338 551Q415 551 477 515ZM388
86T428 110T492 177T515 273Q515 326 492 369T429 436T338 461Q288 461 248 437T184 369T160 273Q160 220 183 178T247 111T338 86Q388 86 428 110ZM312 756T333 748T382 726Q406 712 417 708T442 703Q465 703 482 720Q493 731 501 736T519 741Q530 741 541 734Q557
724 557 701Q557 683 546 669Q508 622 445 622Q415 622 392 630T343 653Q301 676 277 676Q262 676 251 671T229 649Q209 622 184 622Q176 622 164 627Q156 631 151 640T146 660Q146 675 155 688Q178 721 211 738T284 756Q312 756 333 748Z" />
<glyph unicode="&#xe4;" glyph-name="adieresis" horiz-adv-x="675" d="M415 551T477 515T576 415T613 273V50Q613 28 599 14T562 -1Q540 -1 526 13T511 50V87Q476 44 426 20T318 -4Q246 -4 188 32T96 131T62 273Q62 351 98 414T197 514T338 551Q415 551 477 515ZM388
86T428 110T492 177T515 273Q515 326 492 369T429 436T338 461Q288 461 248 437T184 369T160 273Q160 220 183 178T247 111T338 86Q388 86 428 110ZM251 751T269 733T287 691Q287 666 269 649T227 631Q201 631 184 648T166 691Q166 715 184 733T227 751Q251 751
269 733ZM473 751T491 733T509 691Q509 666 491 649T449 631Q423 631 406 648T389 691Q389 715 406 733T449 751Q473 751 491 733Z" />
<glyph unicode="&#xe5;" glyph-name="aring" horiz-adv-x="675" d="M415 551T477 515T576 415T613 273V50Q613 28 599 14T562 -1Q540 -1 526 13T511 50V87Q476 44 426 20T318 -4Q246 -4 188 32T96 131T62 273Q62 351 98 414T197 514T338 551Q415 551 477 515ZM388
86T428 110T492 177T515 273Q515 326 492 369T429 436T338 461Q288 461 248 437T184 369T160 273Q160 220 183 178T247 111T338 86Q388 86 428 110ZM385 801T415 771T445 693Q445 646 415 616T338 586Q291 586 261 616T231 693Q231 740 261 770T338 801Q385 801
415 771ZM316 745T301 731T286 693Q286 671 300 657T338 642Q361 642 375 656T389 693Q389 716 375 730T338 745Q316 745 301 731Z" />
<glyph unicode="&#xe6;" glyph-name="ae" horiz-adv-x="1079" d="M613 238V237Q625 168 677 125T805 82Q835 82 867 93T921 120Q936 132 956 132Q973 132 984 121Q1002 103 1002 86Q1002 69 986 57Q951 30 901 13T805 -4Q748 -4 699 15T613 68V50Q613 28 599 14T562
-1Q540 -1 526 13T511 50V87Q476 44 426 20T318 -4Q246 -4 188 32T96 131T62 273Q62 351 98 414T197 514T338 551Q411 551 471 518T569 427Q602 485 660 518T790 551Q867 551 923 517T1009 422T1039 282Q1039 263 1026 251T993 238H613ZM717 465T672 425T614 318H947Q938
385 897 425T790 465Q717 465 672 425ZM388 86T428 110T492 177T515 273Q515 326 492 369T429 436T338 461Q288 461 248 437T184 369T160 273Q160 220 183 178T247 111T338 86Q388 86 428 110Z" />
<glyph unicode="&#xe7;" glyph-name="ccedilla" horiz-adv-x="601" d="M451 551T529 461Q539 450 539 435Q539 413 517 398Q507 391 494 391Q471 391 455 409Q430 436 401 448T333 461Q256 461 208 410T160 273Q160 219 182 177T245 110T338 86Q406 86 448 121Q467
135 485 135Q499 135 511 126Q530 110 530 90Q530 75 518 63Q446 -4 338 -4Q259 -4 196 32T98 131T62 273Q62 353 96 416T193 515T333 551Q451 551 529 461ZM420 -46T444 -69T468 -130Q468 -156 450 -180T398 -219T320 -234Q261 -234 222 -209T183 -150Q183 -131
197 -117T230 -102Q243 -102 251 -107T264 -127Q271 -144 286 -153T321 -162Q341 -162 354 -153T367 -127Q367 -109 357 -98T322 -83Q297 -79 285 -69T272 -41Q272 -28 277 -15L287 13Q301 54 344 54Q363 54 375 44T388 18Q388 11 383 -1L368 -35Q420 -46 444 -69Z"
/>
<glyph unicode="&#xe8;" glyph-name="egrave" horiz-adv-x="621" d="M581 263T568 251T535 238H155Q166 168 218 125T347 82Q377 82 409 93T463 120Q477 131 496 131Q515 131 526 121Q544 106 544 87Q544 69 528 57Q494 30 444 13T347 -4Q265 -4 200 31T99 130T62
273Q62 353 96 416T192 515T332 551Q409 551 465 517T551 422T581 282Q581 263 568 251ZM259 465T214 425T156 318H489Q480 385 439 425T332 465Q259 465 214 425ZM173 757T173 779Q173 801 187 816T223 831Q244 831 260 816L357 718Q370 705 370 684Q370 662 356
648T319 633Q297 633 284 647L186 744Q173 757 173 779Z" />
<glyph unicode="&#xe9;" glyph-name="eacute" horiz-adv-x="621" d="M581 263T568 251T535 238H155Q166 168 218 125T347 82Q377 82 409 93T463 120Q477 131 496 131Q515 131 526 121Q544 106 544 87Q544 69 528 57Q494 30 444 13T347 -4Q265 -4 200 31T99 130T62
273Q62 353 96 416T192 515T332 551Q409 551 465 517T551 422T581 282Q581 263 568 251ZM259 465T214 425T156 318H489Q480 385 439 425T332 465Q259 465 214 425ZM400 831T421 831Q443 831 457 816T472 779Q472 757 458 744L361 647Q347 633 326 633Q303 633 289
647T275 684Q275 705 287 718L385 816Q400 831 421 831Z" />
<glyph unicode="&#xea;" glyph-name="ecircumflex" horiz-adv-x="621" d="M581 263T568 251T535 238H155Q166 168 218 125T347 82Q377 82 409 93T463 120Q477 131 496 131Q515 131 526 121Q544 106 544 87Q544 69 528 57Q494 30 444 13T347 -4Q265 -4 200 31T99
130T62 273Q62 353 96 416T192 515T332 551Q409 551 465 517T551 422T581 282Q581 263 568 251ZM259 465T214 425T156 318H489Q480 385 439 425T332 465Q259 465 214 425ZM229 615T211 615Q189 615 175 626T160 656Q160 682 184 700L296 773Q309 781 322 781Q337
781 349 773L460 700Q484 682 484 656Q484 638 470 627T434 615Q416 615 401 626L322 682L243 626Q229 615 211 615Z" />
<glyph unicode="&#xeb;" glyph-name="edieresis" horiz-adv-x="621" d="M581 263T568 251T535 238H155Q166 168 218 125T347 82Q377 82 409 93T463 120Q477 131 496 131Q515 131 526 121Q544 106 544 87Q544 69 528 57Q494 30 444 13T347 -4Q265 -4 200 31T99
130T62 273Q62 353 96 416T192 515T332 551Q409 551 465 517T551 422T581 282Q581 263 568 251ZM259 465T214 425T156 318H489Q480 385 439 425T332 465Q259 465 214 425ZM235 751T253 733T271 691Q271 666 253 649T211 631Q185 631 168 648T150 691Q150 715 168
733T211 751Q235 751 253 733ZM457 751T475 733T493 691Q493 666 475 649T433 631Q407 631 390 648T373 691Q373 715 390 733T433 751Q457 751 475 733Z" />
<glyph unicode="&#xec;" glyph-name="igrave" horiz-adv-x="302" d="M100 519T114 533T151 547Q174 547 188 533T202 496V51Q202 29 188 15T151 0Q129 0 115 14T100 51V496Q100 519 114 533ZM2 757T2 779Q2 801 16 816T52 831Q73 831 89 816L186 718Q199 705 199
684Q199 662 185 648T148 633Q126 633 113 647L15 744Q2 757 2 779Z" />
<glyph unicode="&#xed;" glyph-name="iacute" horiz-adv-x="302" d="M100 519T114 533T151 547Q174 547 188 533T202 496V51Q202 29 188 15T151 0Q129 0 115 14T100 51V496Q100 519 114 533ZM229 831T250 831Q272 831 286 816T301 779Q301 757 287 744L190 647Q176
633 155 633Q132 633 118 647T104 684Q104 705 116 718L214 816Q229 831 250 831Z" />
<glyph unicode="&#xee;" glyph-name="icircumflex" horiz-adv-x="302" d="M100 519T114 533T151 547Q174 547 188 533T202 496V51Q202 29 188 15T151 0Q129 0 115 14T100 51V496Q100 519 114 533ZM67 615T51 615Q31 615 18 626T5 656Q5 682 27 700L127 773Q139
781 151 781Q164 781 175 773L275 700Q297 682 297 656Q297 638 284 627T252 615Q235 615 222 626L151 682L80 626Q67 615 51 615Z" />
<glyph unicode="&#xef;" glyph-name="idieresis" horiz-adv-x="302" d="M74 781T92 763T110 721Q110 696 92 679T50 661Q24 661 7 678T-11 721Q-11 745 7 763T50 781Q74 781 92 763ZM276 781T294 763T312 721Q312 696 294 679T252 661Q227 661 210 678T192 721Q192
745 209 763T252 781Q276 781 294 763ZM100 519T114 533T151 547Q174 547 188 533T202 496V51Q202 29 188 15T151 0Q129 0 115 14T100 51V496Q100 519 114 533Z" />
<glyph unicode="&#xf0;" glyph-name="eth" horiz-adv-x="673" d="M603 254Q603 179 568 121T470 29T328 -4Q251 -4 191 29T96 120T62 254Q62 329 93 387T181 478T308 511Q380 511 436 478T523 386Q519 468 500 521T442 611T332 678L295 611Q287 597 271 597Q262
597 251 603Q232 613 232 628Q232 634 237 644L270 703Q258 708 234 716Q192 730 192 754Q192 762 195 769Q202 789 226 789Q240 789 256 783L304 765L333 817Q342 833 355 833Q363 833 375 826Q395 815 395 799Q395 792 391 785L365 738Q455 695 506 645T579 529T602
367L603 254ZM379 86T419 107T482 167T505 254Q505 302 483 340T420 399T328 421Q254 421 207 375T160 254Q160 180 207 133T328 86Q379 86 419 107Z" />
<glyph unicode="&#xf1;" glyph-name="ntilde" horiz-adv-x="682" d="M431 552T486 522T572 435T603 296V50Q603 28 589 14T552 -1Q530 -1 516 13T501 50V296Q501 377 458 418T342 460Q300 460 266 443T212 397T192 332V50Q192 28 178 14T141 -1Q119 -1 105 13T90
50V496Q90 519 104 533T141 547Q164 547 178 533T192 496V485Q224 517 268 534T362 552Q431 552 486 522ZM315 756T336 748T385 726Q409 712 420 708T445 703Q468 703 485 720Q496 731 504 736T522 741Q533 741 544 734Q560 724 560 701Q560 683 549 669Q511 622
448 622Q418 622 395 630T346 653Q304 676 280 676Q265 676 254 671T232 649Q212 622 187 622Q179 622 167 627Q159 631 154 640T149 660Q149 675 158 688Q181 721 214 738T287 756Q315 756 336 748Z" />
<glyph unicode="&#xf2;" glyph-name="ograve" horiz-adv-x="675" d="M417 551T479 516T577 417T613 273Q613 193 578 130T481 32T338 -4Q258 -4 195 31T97 130T62 273Q62 354 97 417T195 515T338 551Q417 551 479 516ZM287 461T247 437T183 370T160 273Q160 219
183 177T246 110T338 86Q389 86 429 110T492 176T515 273Q515 327 493 370T430 437T338 461Q287 461 247 437ZM189 757T189 779Q189 801 203 816T239 831Q260 831 276 816L373 718Q386 705 386 684Q386 662 372 648T335 633Q313 633 300 647L202 744Q189 757 189
779Z" />
<glyph unicode="&#xf3;" glyph-name="oacute" horiz-adv-x="675" d="M417 551T479 516T577 417T613 273Q613 193 578 130T481 32T338 -4Q258 -4 195 31T97 130T62 273Q62 354 97 417T195 515T338 551Q417 551 479 516ZM287 461T247 437T183 370T160 273Q160 219
183 177T246 110T338 86Q389 86 429 110T492 176T515 273Q515 327 493 370T430 437T338 461Q287 461 247 437ZM416 831T437 831Q459 831 473 816T488 779Q488 757 474 744L377 647Q363 633 342 633Q319 633 305 647T291 684Q291 705 303 718L401 816Q416 831 437
831Z" />
<glyph unicode="&#xf4;" glyph-name="ocircumflex" horiz-adv-x="675" d="M417 551T479 516T577 417T613 273Q613 193 578 130T481 32T338 -4Q258 -4 195 31T97 130T62 273Q62 354 97 417T195 515T338 551Q417 551 479 516ZM287 461T247 437T183 370T160 273Q160
219 183 177T246 110T338 86Q389 86 429 110T492 176T515 273Q515 327 493 370T430 437T338 461Q287 461 247 437ZM245 615T227 615Q205 615 191 626T176 656Q176 682 200 700L312 773Q325 781 338 781Q353 781 365 773L476 700Q500 682 500 656Q500 638 486 627T450
615Q432 615 417 626L338 682L259 626Q245 615 227 615Z" />
<glyph unicode="&#xf5;" glyph-name="otilde" horiz-adv-x="675" d="M417 551T479 516T577 417T613 273Q613 193 578 130T481 32T338 -4Q258 -4 195 31T97 130T62 273Q62 354 97 417T195 515T338 551Q417 551 479 516ZM287 461T247 437T183 370T160 273Q160 219
183 177T246 110T338 86Q389 86 429 110T492 176T515 273Q515 327 493 370T430 437T338 461Q287 461 247 437ZM312 756T333 748T382 726Q406 712 417 708T442 703Q465 703 482 720Q493 731 501 736T519 741Q530 741 541 734Q557 724 557 701Q557 683 546 669Q508
622 445 622Q415 622 392 630T343 653Q301 676 277 676Q262 676 251 671T229 649Q209 622 184 622Q176 622 164 627Q156 631 151 640T146 660Q146 675 155 688Q178 721 211 738T284 756Q312 756 333 748Z" />
<glyph unicode="&#xf6;" glyph-name="odieresis" horiz-adv-x="675" d="M417 551T479 516T577 417T613 273Q613 193 578 130T481 32T338 -4Q258 -4 195 31T97 130T62 273Q62 354 97 417T195 515T338 551Q417 551 479 516ZM287 461T247 437T183 370T160 273Q160
219 183 177T246 110T338 86Q389 86 429 110T492 176T515 273Q515 327 493 370T430 437T338 461Q287 461 247 437ZM251 751T269 733T287 691Q287 666 269 649T227 631Q201 631 184 648T166 691Q166 715 184 733T227 751Q251 751 269 733ZM473 751T491 733T509 691Q509
666 491 649T449 631Q423 631 406 648T389 691Q389 715 406 733T449 751Q473 751 491 733Z" />
<glyph unicode="&#xf7;" glyph-name="divide" horiz-adv-x="469" d="M261 547T278 530T296 487Q296 461 279 444T236 426Q211 426 194 444T176 487Q176 512 193 529T236 547Q261 547 278 530ZM407 398T421 384T436 348Q436 326 422 311T385 296H88Q66 296 52 311T37
348Q37 370 51 384T88 398H385Q407 398 421 384ZM261 269T278 252T296 209Q296 183 279 166T236 148Q211 148 194 166T176 209Q176 234 193 251T236 269Q261 269 278 252Z" />
<glyph unicode="&#xf8;" glyph-name="oslash" horiz-adv-x="708" d="M630 552T638 543T646 521Q646 508 638 500L579 441Q633 366 633 268Q633 188 598 125T501 27T358 -9Q305 -9 260 6T179 51L116 -12Q106 -21 94 -21Q80 -21 71 -12T62 9Q62 21 72 31L136 96Q82
169 82 268Q82 349 117 412T215 510T358 546Q462 546 536 486L593 542Q603 552 616 552Q630 552 638 543ZM307 456T267 432T203 365T180 268Q180 205 209 161L468 420Q421 456 358 456Q307 456 267 432ZM409 81T449 105T512 171T535 268Q535 329 507 374L249 117Q294
81 358 81Q409 81 449 105Z" />
<glyph unicode="&#xf9;" glyph-name="ugrave" horiz-adv-x="682" d="M564 548T578 534T592 497V51Q592 29 578 15T541 0Q519 0 505 14T490 51V62Q458 30 414 13T320 -5Q251 -5 196 25T110 112T79 251V497Q79 519 93 533T130 548Q152 548 166 534T181 497V251Q181
170 224 129T340 87Q382 87 416 104T470 150T490 215V497Q490 520 504 534T541 548Q564 548 578 534ZM192 757T192 779Q192 801 206 816T242 831Q263 831 279 816L376 718Q389 705 389 684Q389 662 375 648T338 633Q316 633 303 647L205 744Q192 757 192 779Z"
/>
<glyph unicode="&#xfa;" glyph-name="uacute" horiz-adv-x="682" d="M564 548T578 534T592 497V51Q592 29 578 15T541 0Q519 0 505 14T490 51V62Q458 30 414 13T320 -5Q251 -5 196 25T110 112T79 251V497Q79 519 93 533T130 548Q152 548 166 534T181 497V251Q181
170 224 129T340 87Q382 87 416 104T470 150T490 215V497Q490 520 504 534T541 548Q564 548 578 534ZM419 831T440 831Q462 831 476 816T491 779Q491 757 477 744L380 647Q366 633 345 633Q322 633 308 647T294 684Q294 705 306 718L404 816Q419 831 440 831Z"
/>
<glyph unicode="&#xfb;" glyph-name="ucircumflex" horiz-adv-x="682" d="M564 548T578 534T592 497V51Q592 29 578 15T541 0Q519 0 505 14T490 51V62Q458 30 414 13T320 -5Q251 -5 196 25T110 112T79 251V497Q79 519 93 533T130 548Q152 548 166 534T181 497V251Q181
170 224 129T340 87Q382 87 416 104T470 150T490 215V497Q490 520 504 534T541 548Q564 548 578 534ZM248 615T230 615Q208 615 194 626T179 656Q179 682 203 700L315 773Q328 781 341 781Q356 781 368 773L479 700Q503 682 503 656Q503 638 489 627T453 615Q435
615 420 626L341 682L262 626Q248 615 230 615Z" />
<glyph unicode="&#xfc;" glyph-name="udieresis" horiz-adv-x="682" d="M564 548T578 534T592 497V51Q592 29 578 15T541 0Q519 0 505 14T490 51V62Q458 30 414 13T320 -5Q251 -5 196 25T110 112T79 251V497Q79 519 93 533T130 548Q152 548 166 534T181 497V251Q181
170 224 129T340 87Q382 87 416 104T470 150T490 215V497Q490 520 504 534T541 548Q564 548 578 534ZM254 751T272 733T290 691Q290 666 272 649T230 631Q204 631 187 648T169 691Q169 715 187 733T230 751Q254 751 272 733ZM476 751T494 733T512 691Q512 666 494
649T452 631Q426 631 409 648T392 691Q392 715 409 733T452 751Q476 751 494 733Z" />
<glyph unicode="&#xfd;" glyph-name="yacute" horiz-adv-x="539" d="M539 530T539 503Q539 493 533 479L227 -209Q215 -240 188 -240Q178 -240 164 -234Q134 -221 134 -195Q134 -183 140 -171L240 54L15 481Q10 490 10 502Q10 515 18 526T39 543Q48 547 59 547Q87
547 101 519L284 155L445 518Q458 547 484 547Q497 547 508 542Q539 530 539 503ZM352 831T373 831Q395 831 409 816T424 779Q424 757 410 744L313 647Q299 633 278 633Q255 633 241 647T227 684Q227 705 239 718L337 816Q352 831 373 831Z" />
<glyph unicode="&#xfe;" glyph-name="thorn" horiz-adv-x="703" d="M457 551T515 516T607 417T641 273Q641 193 609 130T518 32T385 -4Q324 -4 274 25T192 106V-183Q193 -205 179 -219T141 -234Q119 -234 105 -220T90 -183V730Q90 753 104 767T141 781Q164 781
178 767T192 730L184 434Q218 490 272 520T385 551Q457 551 515 516ZM416 86T456 110T520 176T543 273Q543 327 520 370T457 437T365 461Q314 461 274 437T211 370T188 273Q188 219 210 177T273 110T365 86Q416 86 456 110Z" />
<glyph unicode="&#xff;" glyph-name="ydieresis" horiz-adv-x="539" d="M539 530T539 503Q539 493 533 479L227 -209Q215 -240 188 -240Q178 -240 164 -234Q134 -221 134 -195Q134 -183 140 -171L240 54L15 481Q10 490 10 502Q10 515 18 526T39 543Q48 547 59
547Q87 547 101 519L284 155L445 518Q458 547 484 547Q497 547 508 542Q539 530 539 503ZM187 751T205 733T223 691Q223 666 205 649T163 631Q137 631 120 648T102 691Q102 715 120 733T163 751Q187 751 205 733ZM409 751T427 733T445 691Q445 666 427 649T385
631Q359 631 342 648T325 691Q325 715 342 733T385 751Q409 751 427 733Z" />
<glyph unicode="&#x2013;" glyph-name="endash" horiz-adv-x="391" d="M413 324T428 310T443 273Q443 252 428 238T392 223H0Q-22 223 -36 237T-51 273Q-51 295 -37 309T0 324H392Q413 324 428 310Z" />
<glyph unicode="&#x2014;" glyph-name="emdash" horiz-adv-x="938" d="M959 324T973 310T988 273Q988 251 974 237T937 223H0Q-22 223 -36 237T-51 273Q-51 295 -37 309T0 324H937Q959 324 973 310Z" />
<glyph unicode="&#x2018;" glyph-name="quoteleft" horiz-adv-x="188" d="M85 545T68 570T50 636Q50 670 68 718T112 802T159 838Q172 838 180 829T188 807Q188 801 185 793Q161 738 161 701Q161 682 169 652Q176 619 176 605Q176 580 158 563T115 545Q85 545 68 570Z" />
<glyph unicode="&#x2019;" glyph-name="quoteright" horiz-adv-x="188" d="M103 795T120 770T138 704Q138 670 120 622T76 538T29 502Q16 502 8 511T0 533Q0 540 3 547Q27 602 27 639Q27 658 19 688Q12 721 12 735Q12 760 30 777T73 795Q103 795 120 770Z" />
<glyph unicode="&#x201a;" glyph-name="quotesinglbase" horiz-adv-x="234" d="M149 105T166 80T184 14Q184 -20 166 -68T122 -152T75 -188Q62 -188 54 -179T46 -157Q46 -151 49 -143Q73 -88 73 -51Q73 -32 65 -2Q58 31 58 45Q58 70 76 87T119 105Q149 105 166 80Z" />
<glyph unicode="&#x201c;" glyph-name="quotedblleft" horiz-adv-x="292" d="M35 545T18 570T0 636Q0 670 18 718T62 802T109 838Q122 838 130 829T138 807Q138 801 135 793Q111 738 111 701Q111 682 119 652Q126 619 126 605Q126 580 108 563T65 545Q35 545 18
570ZM189 545T172 570T154 636Q154 670 172 718T216 802T263 838Q276 838 284 829T292 807Q292 801 289 793Q265 738 265 701Q265 682 273 652Q280 619 280 605Q280 580 262 563T219 545Q189 545 172 570Z" />
<glyph unicode="&#x201d;" glyph-name="quotedblright" horiz-adv-x="288" d="M253 545T270 570T288 636Q288 670 270 718T226 802T179 838Q166 838 158 829T150 807Q150 801 153 793Q177 738 177 701Q177 682 169 652Q162 619 162 605Q162 580 180 563T223 545Q253
545 270 570ZM103 545T120 570T138 636Q138 670 120 718T76 802T29 838Q16 838 8 829T0 807Q0 801 3 793Q27 738 27 701Q27 682 19 652Q12 619 12 605Q12 580 30 563T73 545Q103 545 120 570Z" />
<glyph unicode="&#x201e;" glyph-name="quotedblbase" horiz-adv-x="319" d="M390 105T407 80T425 14Q425 -20 407 -68T363 -152T316 -188Q303 -188 295 -179T287 -157Q287 -151 290 -143Q314 -88 314 -51Q314 -32 306 -2Q299 31 299 45Q299 70 317 87T360 105Q390
105 407 80ZM284 105T301 80T319 14Q319 -20 301 -68T257 -152T210 -188Q197 -188 189 -179T181 -157Q181 -151 184 -143Q208 -88 208 -51Q208 -32 200 -2Q193 31 193 45Q193 70 211 87T254 105Q284 105 301 80Z" />
<glyph unicode="&#x2022;" glyph-name="bullet" horiz-adv-x="391" d="M231 510T260 493T306 447T323 385Q323 352 307 323T261 277T198 260Q146 260 110 296T73 385Q73 419 90 448T136 493T198 510Q231 510 260 493Z" />
<glyph unicode="&#x2039;" glyph-name="guilsinglleft" horiz-adv-x="273" d="M250 64T250 51Q250 30 236 15T199 0Q184 0 172 8T152 31L44 247Q37 263 37 273Q37 285 43 297L152 515Q167 546 199 546Q221 546 235 532T250 496Q250 482 246 474L146 273L246 72Q250
64 250 51Z" />
<glyph unicode="&#x203a;" glyph-name="guilsinglright" horiz-adv-x="273" d="M37 489T37 496Q37 517 52 531T88 546Q122 546 135 515L244 297Q250 285 250 273Q250 260 243 247L135 31Q128 16 116 8T88 0Q67 0 53 15T38 51Q38 63 42 72L142 273L42 474Q37 489 37 496Z" />
</font>
</defs>
</svg>
