<?xml version="1.0" standalone="no"?>
<!DOCTYPE svg PUBLIC "-//W3C//DTD SVG 1.1//EN" "http://www.w3.org/Graphics/SVG/1.1/DTD/svg11.dtd">
<svg xmlns="http://www.w3.org/2000/svg">
<defs >
<font id="Comfortaa" horiz-adv-x="636" ><font-face
    font-family="Comfortaa Light"
    units-per-em="1000"
    panose-1="0 0 4 0 0 0 0 0 0 0"
    ascent="881"
    descent="-234"
    alphabetic="0" />
<glyph unicode=" " glyph-name="space" horiz-adv-x="293" />
<glyph unicode="!" glyph-name="exclam" horiz-adv-x="251" d="M70 764T79 773T101 782Q114 782 122 773T131 751V202Q131 190 122 181T101 172Q89 172 80 181T70 202V751Q70 764 79 773ZM122 101T136 87T151 51Q151 30 137 15T101 0Q79 0 65 14T50 51Q50 72 65
86T101 101Q122 101 136 87Z" />
<glyph unicode="&quot;" glyph-name="quotedbl" horiz-adv-x="273" d="M48 764T57 773T79 782Q92 782 100 773T109 751L99 599Q99 591 93 585T79 579Q70 579 64 585T58 599L48 751Q48 764 57 773ZM169 764T178 773T200 782Q213 782 221 773T230 751L220 599Q220
591 214 585T200 579Q192 579 186 585T180 599L169 751Q169 764 178 773Z" />
<glyph unicode="#" glyph-name="numbersign" horiz-adv-x="729" d="M670 542T677 536T684 520Q684 506 675 499T646 492H558L524 299H618Q630 299 636 293T642 276Q642 264 633 257T604 249H515L477 32Q474 17 464 9T439 0Q415 0 415 20Q415 25 416 28L455 249H233L194
32Q192 18 181 9T157 0Q145 0 138 8T133 28L172 249H78Q67 249 61 255T55 272Q55 285 64 292T87 299H181L215 492H125Q97 492 97 517Q97 528 106 535T132 542H224L262 758Q264 771 275 780T300 790Q312 790 318 782T323 761L284 542H507L545 758Q547 771 558 780T582
790Q596 790 601 782T605 761L567 542H657Q670 542 677 536ZM497 492H275L241 299H464L497 492Z" />
<glyph unicode="$" glyph-name="dollar" horiz-adv-x="572" d="M531 110T473 55T315 -9V-71Q315 -84 309 -90T294 -97Q285 -97 279 -91T273 -71V-10Q194 -6 136 31T50 131Q47 137 47 143Q47 155 55 163T75 171Q83 171 90 166T101 152Q121 106 166 79T273 48V380Q180
399 127 453T73 590Q73 669 128 718T273 774V822Q273 835 279 841T294 848Q303 848 309 842T315 822V774Q379 770 431 737T507 659Q511 652 511 643Q511 635 507 629T496 619Q493 617 485 617Q469 617 460 631Q440 665 404 689T315 716V425Q531 381 531 201Q531
110 473 55ZM132 534T165 494T273 434V716Q206 711 169 679T132 587Q132 534 165 494ZM389 56T430 95T471 201Q471 266 432 310T315 372V49Q389 56 430 95Z" />
<glyph unicode="%" glyph-name="percent" horiz-adv-x="859" d="M287 782T331 756T401 686T428 590Q428 537 402 493T332 423T235 397Q183 397 139 423T68 493T42 590Q42 642 68 686T138 756T235 782Q287 782 331 756ZM709 782T721 782Q734 782 742 773T751 751Q751
739 746 733L178 11Q165 0 154 0Q141 0 133 8T124 30Q124 41 131 51L696 769Q709 782 721 782ZM200 724T169 706T120 657T101 590Q101 554 119 523T168 474T235 455Q271 455 302 473T351 523T370 590Q370 626 351 656T301 705T235 724Q200 724 169 706ZM692 385T736
359T807 289T833 192Q833 140 807 96T737 26T640 0Q588 0 544 26T474 96T448 192Q448 244 474 288T544 359T640 385Q692 385 736 359ZM604 327T573 309T524 259T505 192Q505 156 523 125T573 76T640 58Q676 58 707 76T756 126T775 192Q775 227 757 258T707 308T640
327Q604 327 573 309Z" />
<glyph unicode="&amp;" glyph-name="ampersand" horiz-adv-x="712" d="M663 58T663 49Q663 41 654 32Q644 22 633 22Q622 22 612 32L501 143L471 112Q416 54 365 26T256 -2Q192 -2 144 21T71 85T45 177Q45 239 81 293T201 413L218 426L163 481Q131 512 113 551T94
630Q94 673 116 708T176 764T261 784Q309 784 348 764T409 707T432 625Q432 571 402 525T315 437L297 424L499 222L586 315Q598 327 607 327Q616 327 626 318Q637 309 637 298Q637 288 627 278L538 183L650 71Q663 58 663 49ZM262 459L286 478Q326 509 350 547T374
623Q374 668 344 699T261 730Q216 730 185 701T154 630Q154 596 167 569T206 515L262 459ZM461 183L254 390L230 372Q159 316 132 270T105 174Q105 121 146 87T258 52Q302 52 342 76T430 150L461 183Z" />
<glyph unicode="&apos;" glyph-name="quotesingle" horiz-adv-x="156" d="M49 765T58 773T80 782Q93 782 101 774T110 752L100 600Q100 591 94 586T80 580Q71 580 65 585T59 600L49 752Q49 765 58 773Z" />
<glyph unicode="(" glyph-name="parenleft" horiz-adv-x="245" d="M227 784T235 776T244 756Q244 747 239 737Q124 507 124 275Q124 44 240 -188Q245 -200 245 -206Q245 -218 236 -226T215 -234Q205 -234 198 -229T185 -213Q65 30 65 276Q65 521 185 764Q194 784
215 784Q227 784 235 776Z" />
<glyph unicode=")" glyph-name="parenright" horiz-adv-x="245" d="M18 784T10 776T1 756Q1 747 6 737Q121 507 121 275Q121 44 5 -188Q0 -200 0 -206Q0 -218 9 -226T30 -234Q40 -234 47 -229T60 -213Q180 30 180 276Q180 521 60 764Q51 784 30 784Q18 784 10 776Z" />
<glyph unicode="*" glyph-name="asterisk" horiz-adv-x="381" d="M164 749T164 752Q164 765 172 773T194 782Q207 782 216 774T225 752Q225 749 223 741L202 643L299 699Q305 701 309 701Q321 701 330 692T340 670Q340 642 309 640L207 629L286 561Q300 549 300
535Q300 522 291 513T268 504Q251 504 240 524L195 620L148 525Q141 504 119 504Q106 504 98 513T89 535Q89 547 96 553L183 629L81 640Q66 641 58 650T50 671Q52 685 59 693T80 701Q88 701 100 694L186 644L166 741Q164 749 164 752Z" />
<glyph unicode="+" glyph-name="plus" horiz-adv-x="547" d="M241 611T249 619T271 628Q284 628 293 620T302 598V425H474Q487 425 495 417T504 395Q504 382 496 374T474 365H302V192Q302 179 293 171T271 162Q258 162 250 170T241 192V365H69Q56 365 48 373T39
395Q39 408 47 416T69 425H241V598Q241 611 249 619Z" />
<glyph unicode="," glyph-name="comma" horiz-adv-x="213" d="M128 87T145 65T163 4Q163 -32 152 -69T122 -130T81 -155Q62 -155 62 -138Q62 -128 76 -108Q85 -94 89 -85T94 -64Q94 -46 89 -36T71 -8Q60 5 55 14T50 38Q50 61 65 74T101 87Q128 87 145 65Z" />
<glyph unicode="-" glyph-name="hyphen" horiz-adv-x="391" d="M325 304T334 295T343 273Q343 260 334 252T312 243H69Q56 243 48 251T39 273Q39 286 47 295T69 304H312Q325 304 334 295Z" />
<glyph unicode="." glyph-name="period" horiz-adv-x="201" d="M122 85T136 71T151 35Q151 14 137 -1T101 -16Q79 -16 65 -2T50 35Q50 56 65 70T101 85Q122 85 136 71Z" />
<glyph unicode="/" glyph-name="slash" horiz-adv-x="469" d="M368 774T375 779T393 785Q407 785 414 776T422 754Q422 745 420 741L98 -64Q91 -81 70 -81Q57 -81 48 -73T39 -51Q39 -46 42 -38L365 766Q368 774 375 779Z" />
<glyph unicode="0" glyph-name="zero" horiz-adv-x="566" d="M357 784T409 737T488 601T516 392Q516 208 455 104T283 0Q210 0 158 47T78 182T50 392Q50 513 77 601T157 736T283 784Q357 784 409 737ZM199 723T155 633T111 392Q111 241 154 151T283 60Q368 60
411 150T455 392Q455 542 411 632T283 723Q199 723 155 633Z" />
<glyph unicode="1" glyph-name="one" horiz-adv-x="368" d="M81 667T75 667Q62 667 54 675T45 697Q45 719 64 726L217 777Q235 782 238 782Q251 782 259 774T268 752V30Q268 17 260 9T238 0Q225 0 216 8T207 30V709L88 670Q81 667 75 667Z" />
<glyph unicode="2" glyph-name="two" horiz-adv-x="576" d="M514 61T522 52T531 30Q531 17 523 9T501 0H106Q93 0 84 8T75 30Q75 42 84 52L400 428Q421 450 435 484T450 549Q450 597 429 636T370 698T288 721Q243 721 206 699T148 637T126 549Q126 536 118 528T96
519Q83 519 74 527T65 549Q65 615 94 668T174 751T288 782Q351 782 402 752T482 668T511 549Q511 503 493 464T440 384L165 61H501Q514 61 522 52Z" />
<glyph unicode="3" glyph-name="three" horiz-adv-x="576" d="M350 789T396 763T470 692T497 592Q497 545 463 496T378 425Q451 406 491 349T531 220Q531 155 500 103T414 21T291 -9Q225 -9 171 21T86 104T55 221Q55 235 63 244T86 254Q100 254 108 245T116 221Q116
173 139 135T202 74T291 51Q374 51 422 98T470 220Q470 272 447 311T385 371T296 392Q283 392 275 400T266 422Q266 435 274 443T296 452Q335 452 367 471T417 522T436 592Q436 653 398 691T293 730Q226 730 184 693T142 599Q142 586 133 578T111 569Q97 569 89
577T81 599Q81 653 108 696T183 764T293 789Q350 789 396 763Z" />
<glyph unicode="4" glyph-name="four" horiz-adv-x="643" d="M598 248T598 220Q598 211 589 203T568 194H476V30Q476 17 468 9T446 0Q433 0 425 8T416 30V194H41Q28 194 19 203T10 225Q10 235 16 242L421 770Q426 776 431 779T446 782Q459 782 467 773T476 751V248H568Q598
248 598 220ZM416 248V666L93 248H416Z" />
<glyph unicode="5" glyph-name="five" horiz-adv-x="626" d="M389 506T447 473T538 382T571 253Q571 182 538 124T447 33T318 0Q247 0 189 33T98 124T65 253Q65 266 73 275T95 284Q108 284 117 275T126 253Q126 199 151 155T220 86T318 61Q372 61 416 86T485 155T510
253Q510 307 485 351T416 420T318 446H136Q123 446 115 454T106 476V752Q106 765 114 773T136 782H500Q513 782 522 774T531 752Q531 739 522 730T500 721H166V506H318Q389 506 447 473Z" />
<glyph unicode="6" glyph-name="six" horiz-adv-x="577" d="M365 467T418 437T501 353T532 233Q532 167 502 114T418 31T299 0Q233 0 180 30T96 114T65 233Q65 295 93 346H92L96 352L103 364L348 765Q359 782 376 782Q389 782 398 773T407 752Q407 745 402 735L230
457Q261 467 299 467Q365 467 418 437ZM348 59T387 82T450 144T473 233Q473 282 450 322T388 385T299 408Q250 408 210 385T147 322T124 233Q124 184 147 145T210 82T299 59Q348 59 387 82Z" />
<glyph unicode="7" glyph-name="seven" horiz-adv-x="583" d="M73 721T64 730T55 752Q55 765 64 773T86 782H511Q524 782 532 774T541 752Q541 748 536 735L204 18Q200 10 193 5T176 0Q163 0 154 8T145 30Q145 35 152 51L459 721H86Q73 721 64 730Z" />
<glyph unicode="8" glyph-name="eight" horiz-adv-x="601" d="M466 410T501 356T536 234Q536 166 505 111T421 25T301 -7Q234 -7 181 24T96 109T65 231Q65 300 100 355T194 437Q155 463 133 505T111 598Q111 649 136 691T205 757T303 781Q356 781 398 758T465
693T490 600Q490 549 468 506T407 437Q466 410 501 356ZM168 538T206 500T301 462Q357 462 395 501T433 600Q433 653 395 689T301 725Q244 725 206 688T168 596Q168 538 206 500ZM473 282T451 321T389 383T301 406Q252 406 213 383T151 320T128 229Q128 178 150
137T212 71T301 47Q350 47 389 71T450 138T473 233Q473 282 451 321Z" />
<glyph unicode="9" glyph-name="nine" horiz-adv-x="577" d="M212 315T159 345T76 429T45 549Q45 615 75 668T159 751T278 782Q344 782 397 752T481 668T512 549Q512 487 484 436H485L481 430L474 418L229 17Q218 0 201 0Q188 0 179 9T170 30Q170 37 175 47L347
325Q316 315 278 315Q212 315 159 345ZM229 723T190 700T127 638T104 549Q104 500 127 460T189 397T278 374Q327 374 367 397T430 460T453 549Q453 598 430 637T367 700T278 723Q229 723 190 700Z" />
<glyph unicode=":" glyph-name="colon" horiz-adv-x="195" d="M365 536T379 522T394 486Q394 464 380 450T344 435Q323 435 308 449T293 486Q293 507 307 521T344 536Q365 536 379 522ZM362 85T376 71T391 35Q391 14 377 -1T341 -16Q319 -16 305 -2T290 35Q290
56 305 70T341 85Q362 85 376 71Z" />
<glyph unicode=";" glyph-name="semicolon" horiz-adv-x="204" d="M128 87T145 65T163 4Q163 -32 152 -69T122 -130T81 -155Q62 -155 62 -138Q62 -128 76 -108Q85 -94 89 -85T94 -64Q94 -46 89 -36T71 -8Q60 5 55 14T50 38Q50 61 65 74T101 87Q128 87 145 65ZM365
536T379 522T394 486Q394 464 380 450T344 435Q323 435 308 449T293 486Q293 507 307 521T344 536Q365 536 379 522Z" />
<glyph unicode="&lt;" glyph-name="less" horiz-adv-x="547" d="M505 128T505 111Q505 98 495 89T473 80Q465 80 460 84L57 327Q39 336 39 354Q39 370 57 382L460 625Q470 629 476 629Q488 629 496 622T505 601Q505 584 489 574L125 356L489 138Q505 128 505 111Z" />
<glyph unicode="=" glyph-name="equal" horiz-adv-x="508" d="M448 506T456 498T465 476Q465 463 457 455T435 446H70Q57 446 49 454T40 476Q40 489 48 497T70 506H435Q448 506 456 498ZM448 263T456 255T465 233Q465 220 457 212T435 203L70 202Q57 203 49 211T40
233Q40 246 48 254T70 263H435Q448 263 456 255Z" />
<glyph unicode="&gt;" glyph-name="greater" horiz-adv-x="547" d="M505 370T505 354Q505 336 487 327L84 84Q79 80 71 80Q59 80 49 89T39 111Q39 128 55 138L419 356L55 574Q39 584 39 601Q39 614 47 621T68 629Q74 629 84 625L487 382Q505 370 505 354Z" />
<glyph unicode="?" glyph-name="question" horiz-adv-x="547" d="M339 797T392 768T475 688T505 575Q505 531 491 497T456 438T394 375L357 340Q303 286 303 203Q303 190 295 181T272 172Q259 172 251 180T242 203Q242 244 261 290T310 367L345 401Q379 433 399
455T432 509T445 581Q445 625 423 660T362 716T272 737Q196 737 148 689T100 565Q100 552 92 544T70 536Q56 536 48 544T39 565Q39 632 69 685T152 767T272 797Q339 797 392 768ZM293 101T308 87T323 51Q323 29 308 15T272 0Q251 0 237 15T222 51Q222 72 236 86T272
101Q293 101 308 87Z" />
<glyph unicode="@" glyph-name="at" horiz-adv-x="1094" d="M817 25T867 25Q905 25 934 56T979 145T996 274Q996 403 939 505T779 664T548 722Q419 722 317 665T158 505T101 274Q101 145 158 43T317 -116T548 -173Q595 -173 646 -163T732 -135Q746 -129 755 -129Q766
-129 772 -136T778 -156Q778 -172 748 -190T665 -221T548 -233Q401 -233 286 -169T106 11T41 274Q41 421 105 536T285 717T548 782Q695 782 810 717T991 537T1056 274Q1056 185 1032 115T965 5T867 -35Q819 -35 788 -4T757 75V107Q728 63 669 34T548 5Q470 5 409
39T314 135T279 274Q279 352 313 413T409 509T548 544Q626 544 687 510T782 414T817 274V95Q817 25 867 25ZM488 484T441 457T366 383T339 274Q339 214 366 167T440 92T548 65Q608 65 655 92T730 166T757 274Q757 335 730 382T656 457T548 484Q488 484 441 457Z"
/>
<glyph unicode="A" glyph-name="A" horiz-adv-x="703" d="M690 37T690 30Q690 18 681 9T660 0Q640 0 632 19L558 196H151L77 19Q70 0 49 0Q35 0 27 9T19 30Q19 37 22 43L325 760Q333 781 354 781Q374 781 383 760L687 43Q690 37 690 30ZM535 250L354 682L174 250H535Z" />
<glyph unicode="B" glyph-name="B" horiz-adv-x="675" d="M430 781T477 757T551 689T579 592Q579 536 549 492T469 425Q539 406 579 355T620 227Q620 161 591 110T509 29T390 0H139Q121 0 111 7T100 30V751Q100 765 108 773T130 781H375Q430 781 477 757ZM439
451T479 490T519 592Q519 653 480 687T375 721H160V451H375Q439 451 479 490ZM439 60T477 81T538 141T560 227Q560 274 538 311T478 370T390 391H160V60H390Q439 60 477 81Z" />
<glyph unicode="C" glyph-name="C" horiz-adv-x="767" d="M591 791T698 702Q707 695 707 682Q707 670 699 661T677 651Q666 651 652 663Q576 731 451 731Q363 731 287 684T165 559T120 391Q120 299 164 221T285 96T451 50Q569 50 658 123Q665 128 673 128Q685
128 694 119T704 97Q704 84 697 76Q611 -10 451 -10Q346 -10 256 44T113 191T60 391Q60 498 112 590T254 736T451 791Q591 791 698 702Z" />
<glyph unicode="D" glyph-name="D" horiz-adv-x="761" d="M423 781T512 731T651 593T701 391Q701 278 651 189T512 50T310 0H130Q117 0 109 8T100 30V751Q100 765 108 773T130 781H310Q423 781 512 731ZM406 54T481 97T598 218T641 391Q641 487 599 563T481 683T310
727H160V54H310Q406 54 481 97Z" />
<glyph unicode="E" glyph-name="E" horiz-adv-x="686" d="M623 60T632 51T641 30Q641 17 632 9T611 0H130Q117 0 109 8T100 30V751Q100 764 108 772T130 781H611Q623 781 632 773T641 751Q641 739 632 730T611 721H160V421H491Q504 421 512 413T521 391Q521 378
513 369T491 360H160V60H611Q623 60 632 51Z" />
<glyph unicode="F" glyph-name="F" horiz-adv-x="625" d="M443 421T451 413T460 391Q460 378 452 369T430 360H99V30Q99 17 91 9T69 0Q56 0 48 8T39 30V751Q39 764 47 772T69 781H550Q562 781 571 773T580 751Q580 739 571 730T550 721H99V421H430Q443 421 451 413Z" />
<glyph unicode="G" glyph-name="G" horiz-adv-x="767" d="M687 380T695 372T704 351V97Q704 90 703 86T697 76Q611 -10 451 -10Q346 -10 256 44T113 191T60 391Q60 498 112 590T254 736T451 791Q591 791 698 702Q707 695 707 682Q707 670 699 661T677 651Q666
651 652 663Q576 731 451 731Q363 731 287 684T165 559T120 391Q120 299 164 221T285 96T451 50Q560 50 644 112V326H476Q463 326 455 334T446 354Q446 365 454 372T476 380H674Q687 380 695 372Z" />
<glyph unicode="H" glyph-name="H" horiz-adv-x="825" d="M665 764T673 772T695 781Q707 781 716 773T725 751V30Q725 17 716 9T695 0Q682 0 674 8T665 30V367H160V30Q160 17 152 9T130 0Q117 0 109 8T100 30V751Q100 764 108 772T130 781Q143 781 151 773T160
751V421H665V751Q665 764 673 772Z" />
<glyph unicode="I" glyph-name="I" horiz-adv-x="260" d="M100 764T108 772T130 781Q143 781 151 773T160 751V30Q160 17 152 9T130 0Q117 0 109 8T100 30V751Q100 764 108 772Z" />
<glyph unicode="J" glyph-name="J" horiz-adv-x="606" d="M506 158T475 105T391 21T276 -10Q213 -10 160 21T76 105T45 220Q45 233 53 241T75 250Q88 250 96 242T105 220Q105 174 128 135T191 73T276 50Q322 50 361 73T423 135T446 220V751Q446 764 455 772T476
781Q489 781 497 773T506 751V220Q506 158 475 105Z" />
<glyph unicode="K" glyph-name="K" horiz-adv-x="647" d="M160 17T152 9T130 0Q118 0 109 8T100 30V751Q100 764 109 772T130 781Q143 781 151 773T160 751V384L548 772Q559 781 571 781Q584 781 592 772T601 751Q601 740 592 729L305 442L595 48Q601 39 601 30Q601
18 592 9T572 0Q555 0 546 13L261 398L160 297V30Q160 17 152 9Z" />
<glyph unicode="L" glyph-name="L" horiz-adv-x="626" d="M584 54T592 47T601 27Q601 15 593 8T571 0H130Q118 0 109 8T100 30V751Q100 764 109 772T130 781Q143 781 151 773T160 751V54H571Q584 54 592 47Z" />
<glyph unicode="M" glyph-name="M" horiz-adv-x="981" d="M865 781T873 773T881 751V30Q881 17 873 9T852 0Q839 0 830 8T821 30V643L517 24Q510 10 491 10Q473 10 463 29L160 634V30Q160 17 152 9T130 0Q117 0 109 8T100 30V751Q100 764 108 772T130 781Q150
781 157 766L493 102L825 766Q834 781 852 781Q865 781 873 773Z" />
<glyph unicode="N" glyph-name="N" horiz-adv-x="821" d="M661 764T669 772T691 781Q703 781 712 773T721 751V30Q721 17 712 9T691 0Q677 0 669 9L160 671V30Q160 17 152 9T130 0Q117 0 109 8T100 30V751Q100 764 108 772T130 781Q144 781 153 771L661 110V751Q661
764 669 772Z" />
<glyph unicode="O" glyph-name="O" horiz-adv-x="921" d="M573 791T664 739T808 595T861 391Q861 278 809 187T665 43T461 -10Q348 -10 257 42T113 186T60 391Q60 503 112 594T256 738T461 791Q573 791 664 739ZM365 731T287 687T165 564T120 391Q120 295 164
217T287 95T461 50Q556 50 634 94T756 217T801 391Q801 486 757 564T634 686T461 731Q365 731 287 687Z" />
<glyph unicode="P" glyph-name="P" horiz-adv-x="605" d="M160 17T152 9T130 0Q117 0 109 8T100 30V751Q100 765 108 773T130 781H330Q402 781 459 749T548 660T580 531Q580 458 548 401T459 312T330 280H160V30Q160 17 152 9ZM385 340T428 364T495 432T520 531Q520
586 496 629T428 696T330 721H160V340H330Q385 340 428 364Z" />
<glyph unicode="Q" glyph-name="Q" horiz-adv-x="921" d="M811 50Q820 41 820 30Q820 18 811 9Q802 0 791 0Q779 0 770 9L708 71Q657 32 594 11T461 -10Q348 -10 257 42T113 186T60 391Q60 503 112 594T256 738T461 791Q573 791 664 739T808 595T861 391Q861 308
833 236T751 109L811 50ZM577 50T664 114L548 229Q539 238 539 250Q539 261 548 270Q557 279 569 279Q580 279 589 270L708 152Q752 199 776 260T801 391Q801 486 757 564T634 686T461 731Q365 731 287 687T165 564T120 391Q120 295 164 217T287 95T461 50Q577
50 664 114Z" />
<glyph unicode="R" glyph-name="R" horiz-adv-x="608" d="M583 32T583 23Q583 12 575 6T550 0Q540 0 534 4T523 16L339 310H321H160V30Q160 17 152 9T130 0Q117 0 109 8T100 30V751Q100 765 108 773T130 781H321Q393 781 450 751T539 667T571 544Q571 462 526
403T403 321L575 46Q583 32 583 23ZM321 370Q376 370 419 392T486 454T511 544Q511 595 487 635T419 698T321 721H160V370H321Z" />
<glyph unicode="S" glyph-name="S" horiz-adv-x="644" d="M398 791T459 756T549 672Q553 665 553 656Q553 648 549 642T536 631Q532 629 524 629Q506 629 496 644Q437 731 325 731Q242 731 196 694T149 589Q149 533 195 495T337 441Q463 420 521 364T579 215Q579
146 549 95T463 17T334 -10Q240 -10 171 28T68 134Q65 140 65 146Q65 158 73 166T96 174Q116 174 125 155Q152 105 205 78T334 50Q420 50 469 93T519 215Q519 283 471 327T327 385Q216 401 153 457T89 595Q89 653 118 697T201 766T325 791Q398 791 459 756Z" />
<glyph unicode="T" glyph-name="T" horiz-adv-x="650" d="M620 781T627 774T635 754Q635 742 628 735T608 727H355V30Q355 17 347 9T325 0Q312 0 304 8T295 30V727H42Q30 727 23 734T15 754Q15 766 22 773T42 781H608Q620 781 627 774Z" />
<glyph unicode="U" glyph-name="U" horiz-adv-x="801" d="M100 765T108 773T130 781Q144 781 152 773T160 751V255Q160 194 190 146T275 71T400 44Q470 44 524 71T610 146T641 255V751Q641 765 649 773T671 781Q685 781 693 773T701 751V255Q701 176 663 115T556
19T400 -16Q313 -16 245 18T138 114T100 255V751Q100 765 108 773Z" />
<glyph unicode="V" glyph-name="V" horiz-adv-x="702" d="M668 781T675 773T682 752Q682 741 678 732L379 19Q370 0 352 0Q342 0 336 4T325 19L25 732Q20 745 20 753Q20 766 29 773T51 781Q61 781 68 776T80 760L353 106L623 756Q628 769 636 775T656 781Q668
781 675 773Z" />
<glyph unicode="W" glyph-name="W" horiz-adv-x="938" d="M892 781T900 773T908 750Q908 746 906 736L700 26Q696 14 688 7T669 0Q657 0 649 7T638 26L468 627L300 26Q290 0 268 0Q257 0 249 7T237 26L30 736Q28 746 28 749Q28 763 36 772T58 781Q81 781 87 758L268
132L440 732Q442 740 450 745T468 751Q478 751 486 746T497 731L669 132L850 761Q852 770 860 775T879 781Q892 781 900 773Z" />
<glyph unicode="X" glyph-name="X" horiz-adv-x="701" d="M657 41T657 29Q657 17 650 9T629 0Q623 0 616 2T606 10L352 362L98 10Q89 0 75 0Q62 0 54 8T45 28Q45 39 52 49L309 404L70 734Q63 742 63 754Q63 765 71 773T91 781Q106 781 116 768L351 443L585 768Q595
781 610 781Q623 781 631 771T640 749Q640 741 635 734L394 402L650 49Q657 41 657 29Z" />
<glyph unicode="Y" glyph-name="Y" horiz-adv-x="633" d="M613 781T620 773T628 753Q628 742 623 734L347 292V30Q347 17 339 9T317 0Q304 0 296 8T287 30V292L11 734Q5 745 5 753Q5 765 13 773T34 781Q47 781 58 769L317 347L572 762Q579 773 585 777T601 781Q613
781 620 773Z" />
<glyph unicode="Z" glyph-name="Z" horiz-adv-x="711" d="M61 727T53 733T45 754Q45 765 53 773T75 781H636Q649 781 657 772T666 750Q666 741 661 734L122 54H636Q649 54 657 47T666 27Q666 16 657 8T636 0H75Q62 0 54 9T45 30Q45 41 52 49L587 727H75Q61 727 53 733Z" />
<glyph unicode="[" glyph-name="bracketleft" horiz-adv-x="288" d="M270 -173T279 -182T288 -204Q288 -217 279 -225T257 -234H95Q82 -234 74 -226T65 -204V752Q65 765 73 773T95 782H257Q270 782 279 774T288 752Q288 739 279 730T257 721H125V-173H257Q270
-173 279 -182Z" />
<glyph unicode="\" glyph-name="backslash" horiz-adv-x="469" d="M46 744T46 751Q46 764 55 773T77 782Q85 782 93 778T104 765L428 -38Q431 -44 431 -51Q431 -64 423 -72T401 -81Q381 -81 374 -64L49 738Q46 744 46 751Z" />
<glyph unicode="]" glyph-name="bracketright" horiz-adv-x="288" d="M18 -173T9 -182T0 -204Q0 -217 9 -225T31 -234H193Q206 -234 214 -226T223 -204V752Q223 765 215 773T193 782H31Q18 782 9 774T0 752Q0 739 9 730T31 721H163V-173H31Q18 -173 9 -182Z" />
<glyph unicode="^" glyph-name="asciicircum" horiz-adv-x="469" d="M91 479T77 479Q64 479 55 487T46 509Q46 516 50 524L214 770Q224 782 239 782Q253 782 263 770L427 524Q431 519 431 509Q431 496 423 488T401 479Q384 479 377 489L239 697L101 489Q91 479 77 479Z" />
<glyph unicode="_" glyph-name="underscore" horiz-adv-x="469" d="M495 0T503 -9T512 -31Q512 -44 504 -53T482 -62H-4Q-17 -62 -26 -53T-35 -31Q-35 -18 -26 -9T-4 0H482Q495 0 503 -9Z" />
<glyph unicode="`" glyph-name="grave" horiz-adv-x="273" d="M48 738T48 751Q48 764 57 773T79 782Q91 782 100 773L223 650Q230 643 230 630Q230 617 222 608T200 599Q190 599 179 607L56 730Q48 738 48 751Z" />
<glyph unicode="a" glyph-name="a" horiz-adv-x="679" d="M418 553T482 517T582 416T619 273V30Q619 17 611 9T589 0Q576 0 568 8T559 30V108Q526 55 469 25T340 -6Q261 -6 197 30T97 131T60 273Q60 352 96 416T197 516T340 553Q418 553 482 517ZM402 50T452 79T530
159T559 273Q559 336 531 387T452 467T340 497Q278 497 228 468T149 387T120 273Q120 210 149 159T228 79T340 50Q402 50 452 79Z" />
<glyph unicode="b" glyph-name="b" horiz-adv-x="709" d="M106 781T98 773T90 751V270V268Q91 191 128 128T228 30T369 -6Q448 -6 512 30T612 131T649 274Q649 352 613 416T512 516T369 553Q298 553 241 523T150 439V751Q150 765 142 773T120 781Q106 781 98 773ZM307
50T257 79T179 160T150 274Q150 337 178 388T257 468T369 497Q431 497 481 468T560 388T589 274Q589 211 560 160T481 80T369 50Q307 50 257 79Z" />
<glyph unicode="c" glyph-name="c" horiz-adv-x="593" d="M381 552T434 527T526 453Q533 443 533 436Q533 422 519 414Q512 408 503 408Q489 408 480 420Q416 496 317 496Q259 496 214 468T145 388T120 273Q120 210 147 159T222 79T332 50Q420 50 473 99Q482 108
494 108Q505 108 512 101Q522 92 522 79Q522 68 514 61Q479 29 432 12T332 -6Q255 -6 193 30T96 131T60 273Q60 352 93 415T185 515T317 552Q381 552 434 527Z" />
<glyph unicode="d" glyph-name="d" horiz-adv-x="709" d="M603 781T611 773T619 751V270V268Q618 191 581 128T481 30T340 -6Q261 -6 197 30T97 131T60 274Q60 352 96 416T197 516T340 553Q411 553 468 523T559 439V751Q559 765 567 773T589 781Q603 781 611 773ZM402
50T452 79T530 160T559 274Q559 337 531 388T452 468T340 497Q278 497 228 468T149 388T120 274Q120 211 149 160T228 80T340 50Q402 50 452 79Z" />
<glyph unicode="e" glyph-name="e" horiz-adv-x="609" d="M390 552T447 518T537 422T569 283Q569 270 561 263T540 255H121Q124 196 152 150T227 77T332 51Q371 51 410 64T473 100Q483 108 494 108Q505 108 512 102Q523 93 523 81Q523 71 514 62Q482 33 431 14T332
-5Q253 -5 192 30T95 129T60 273Q60 354 92 417T183 516T317 552Q390 552 447 518ZM239 496T186 444T122 307H511Q504 392 451 444T317 496Q239 496 186 444Z" />
<glyph unicode="f" glyph-name="f" horiz-adv-x="365" d="M262 727T229 679T196 548V527H328Q340 527 347 520T355 500Q355 488 348 481T328 473H196V30Q196 17 188 9T165 0Q152 0 144 8T135 30V473H57Q45 473 38 480T30 500Q30 512 37 519T57 527H135V548Q135
655 185 718T335 781Q348 781 356 774T365 754Q365 742 357 735T335 727Q262 727 229 679Z" />
<glyph unicode="g" glyph-name="g" horiz-adv-x="679" d="M421 553T484 517T583 418T619 273V77Q619 -3 583 -68T484 -171T344 -209Q265 -209 206 -180T106 -99Q98 -89 98 -79Q98 -67 108 -60Q116 -54 126 -54Q142 -54 152 -67Q185 -107 233 -130T344 -153Q405
-153 454 -123T531 -41T559 77V121Q530 62 473 28T340 -6Q259 -6 196 29T96 128T60 273Q60 353 97 417T198 517T340 553Q421 553 484 517ZM403 50T453 78T531 157T559 273Q559 338 531 389T453 468T340 497Q276 497 226 469T148 389T120 273Q120 208 148 158T226
79T340 50Q403 50 453 78Z" />
<glyph unicode="h" glyph-name="h" horiz-adv-x="673" d="M413 554T470 524T560 437T593 299V30Q593 17 585 9T563 0Q550 0 542 8T533 30V299Q533 394 480 444T340 494Q287 494 244 474T175 417T150 336V30Q150 17 142 9T120 0Q107 0 99 8T90 30V751Q90 765 98
773T120 781Q134 781 142 773T150 751V465Q184 507 233 530T340 554Q413 554 470 524Z" />
<glyph unicode="i" glyph-name="i" horiz-adv-x="280" d="M110 531T118 539T140 547Q154 547 162 539T170 517V30Q170 17 162 9T140 0Q127 0 119 8T110 30V517Q110 531 118 539ZM159 755T172 743T186 709Q186 689 173 676T139 662Q119 662 106 675T93 709Q93 731
107 743T140 755Q159 755 172 743Z" />
<glyph unicode="j" glyph-name="j" horiz-adv-x="284" d="M174 -68T144 -121T61 -204T-59 -234Q-73 -234 -81 -226T-90 -204Q-90 -191 -82 -182T-59 -173Q17 -173 65 -125T113 -1V517Q113 531 121 539T143 547Q157 547 165 539T174 517V-1Q174 -68 144 -121ZM162
755T175 743T189 709Q189 689 176 676T142 662Q122 662 109 675T96 709Q96 731 110 743T143 755Q162 755 175 743Z" />
<glyph unicode="k" glyph-name="k" horiz-adv-x="574" d="M510 36T510 26Q510 15 499 5Q489 -3 481 -3Q469 -3 460 9L243 274L150 189V30Q150 17 142 9T120 0Q107 0 99 8T90 30V751Q90 765 98 773T120 781Q134 781 142 773T150 751V262L460 544Q470 552 479 552Q489
552 498 542Q507 533 507 523Q507 513 497 504L285 311L503 44Q510 36 510 26Z" />
<glyph unicode="l" glyph-name="l" horiz-adv-x="270" d="M70 765T78 773T100 781Q114 781 122 773T130 751V165Q130 119 149 90T200 60H225Q236 60 243 52T250 30Q250 17 242 9T220 0H200Q143 0 107 46T70 165V751Q70 765 78 773Z" />
<glyph unicode="m" glyph-name="m" horiz-adv-x="953" d="M727 554T774 524T847 441T873 319V30Q873 17 865 9T843 0Q830 0 822 8T813 30V319Q813 396 772 445T667 494Q597 494 554 448T513 326V319V30Q513 17 505 9T483 0Q470 0 462 8T453 30V319Q453 396 412
445T307 494Q238 494 194 450T150 336V30Q150 17 142 9T120 0Q107 0 99 8T90 30V517Q90 531 98 539T120 547Q134 547 142 539T150 517V478Q178 514 219 534T307 554Q365 554 411 526T484 447Q511 497 559 525T667 554Q727 554 774 524Z" />
<glyph unicode="n" glyph-name="n" horiz-adv-x="673" d="M413 554T470 524T560 437T593 299V30Q593 17 585 9T563 0Q550 0 542 8T533 30V299Q533 394 480 444T340 494Q287 494 244 474T175 417T150 336V30Q150 17 142 9T120 0Q107 0 99 8T90 30V517Q90 531 98
539T120 547Q134 547 142 539T150 517V465Q184 507 233 530T340 554Q413 554 470 524Z" />
<glyph unicode="o" glyph-name="o" horiz-adv-x="679" d="M418 553T482 517T582 416T619 273Q619 195 583 131T482 31T340 -6Q261 -6 197 30T97 131T60 273Q60 352 96 416T197 516T340 553Q418 553 482 517ZM278 497T228 468T149 387T120 273Q120 210 149 159T228
79T340 50Q402 50 452 79T530 159T559 273Q559 336 531 387T452 467T340 497Q278 497 228 468Z" />
<glyph unicode="p" glyph-name="p" horiz-adv-x="709" d="M448 553T512 517T612 416T649 273Q649 195 613 131T512 31T369 -6Q298 -6 241 24T150 108V-204Q150 -218 142 -226T120 -234Q107 -234 99 -226T90 -204V277V279Q91 356 128 419T228 517T369 553Q448 553
512 517ZM431 50T481 79T560 159T589 273Q589 336 560 387T481 467T369 497Q307 497 257 468T179 387T150 273Q150 210 178 159T257 79T369 50Q431 50 481 79Z" />
<glyph unicode="q" glyph-name="q" horiz-adv-x="709" d="M619 277V-204Q619 -218 611 -226T589 -234Q576 -234 568 -226T559 -204V108Q526 55 469 25T340 -6Q261 -6 197 30T97 131T60 273Q60 352 96 416T197 516T340 553Q417 553 480 518T581 419T619 279V277ZM402
50T452 79T530 159T559 273Q559 336 531 387T452 467T340 497Q278 497 228 468T149 387T120 273Q120 210 149 159T228 79T340 50Q402 50 452 79Z" />
<glyph unicode="r" glyph-name="r" horiz-adv-x="438" d="M398 553T398 520Q398 515 397 512Q394 501 388 497T370 492Q361 492 347 494T322 496Q272 496 233 475T172 417T150 334V30Q150 17 142 9T120 0Q107 0 99 8T90 30V517Q90 531 98 539T120 547Q134 547
142 539T150 517V455Q179 501 224 527T322 553Q398 553 398 520Z" />
<glyph unicode="s" glyph-name="s" horiz-adv-x="536" d="M403 553T468 463Q474 456 474 446Q474 432 458 423Q448 419 443 419Q428 419 418 432Q367 497 275 497Q214 497 178 471T142 405Q142 365 176 341T292 305Q398 290 444 249T491 148Q491 102 462 67T383
13T276 -6Q218 -6 163 14T72 77Q65 85 65 95Q65 109 78 118Q84 123 95 123Q109 123 118 112Q168 51 279 51Q358 51 395 79T433 151Q433 230 280 252Q183 266 134 305T84 399Q84 472 137 512T277 553Q403 553 468 463Z" />
<glyph unicode="t" glyph-name="t" horiz-adv-x="403" d="M351 61T359 53T368 30Q368 17 360 9T337 0H314Q259 0 216 25T149 93T125 192V473H47Q35 473 28 480T20 500Q20 512 27 519T47 527H125V690Q125 704 133 712T155 721Q169 721 177 713T186 690V527H318Q330
527 337 520T345 500Q345 488 338 481T318 473H186V192Q186 134 222 98T315 61H337Q351 61 359 53Z" />
<glyph unicode="u" glyph-name="u" horiz-adv-x="673" d="M567 547T575 539T583 517V30Q583 17 575 9T553 0Q540 0 532 8T523 30V82Q489 40 440 17T333 -7Q260 -7 203 23T113 110T80 248V517Q80 530 88 538T110 547Q123 547 131 539T140 517V248Q140 153 193 103T333
53Q386 53 429 73T498 130T523 211V517Q523 531 531 539T553 547Q567 547 575 539Z" />
<glyph unicode="v" glyph-name="v" horiz-adv-x="557" d="M537 538T537 520Q537 513 535 509L310 20Q300 -1 278 -1Q269 -1 262 4T250 20L22 508Q20 512 20 519Q20 537 37 545Q43 548 49 548Q66 548 74 531L279 87L481 532Q489 549 507 549Q514 549 520 546Q537
538 537 520Z" />
<glyph unicode="w" glyph-name="w" horiz-adv-x="749" d="M715 547T722 539T729 519Q729 512 726 504L565 19Q562 10 555 5T536 0Q526 0 518 5T508 19L372 442L240 19Q233 0 212 0Q202 0 195 5T184 19L22 504Q20 516 20 520Q20 547 45 547Q54 547 61 543T73 529L214
103L344 523Q347 534 355 540T374 547Q396 547 404 523L535 111L674 529Q682 547 702 547Q715 547 722 539Z" />
<glyph unicode="x" glyph-name="x" horiz-adv-x="542" d="M497 37T497 26Q497 14 488 7T470 0Q458 0 452 4T436 19L268 242L86 9Q80 0 65 0Q52 0 44 9T35 30Q35 41 42 49L228 280L64 497Q57 505 57 517Q57 529 65 538T87 547Q100 547 109 538L269 325L436 529Q451
547 467 547Q480 547 487 539T495 519Q495 508 487 497L310 286L488 49Q497 37 497 26Z" />
<glyph unicode="y" glyph-name="y" horiz-adv-x="554" d="M544 538T544 523Q544 519 540 509L204 -219Q195 -237 181 -237Q175 -237 167 -234Q148 -226 148 -211Q148 -207 152 -197L252 19Q251 20 248 26L29 506Q25 514 25 522Q25 537 42 545Q50 549 58 549Q73
549 81 532L284 88L488 531Q497 549 511 549Q518 549 525 546Q544 538 544 523Z" />
<glyph unicode="z" glyph-name="z" horiz-adv-x="555" d="M510 54T510 27Q510 0 483 0H92Q65 0 65 27Q65 42 73 48L430 493H92Q65 493 65 520Q65 547 92 547H483Q510 547 510 520Q510 508 506 503L148 54H483Q510 54 510 27Z" />
<glyph unicode="{" glyph-name="braceleft" horiz-adv-x="369" d="M248 -173T338 -173Q351 -173 360 -182T369 -204Q369 -217 360 -225T338 -234Q187 -234 187 -83V152Q187 243 96 243Q83 243 74 251T65 273Q65 286 74 295T96 304Q187 304 187 395V630Q187 782
338 782Q352 782 360 774T369 751Q369 738 360 730T338 721Q248 721 248 630V395Q248 320 203 273Q248 228 248 152V-83Q248 -173 338 -173Z" />
<glyph unicode="|" glyph-name="bar" horiz-adv-x="391" d="M163 765T171 773T193 782Q206 782 215 774T224 752V-204Q224 -217 215 -225T193 -234Q180 -234 172 -226T163 -204V752Q163 765 171 773Z" />
<glyph unicode="}" glyph-name="braceright" horiz-adv-x="369" d="M121 -173T31 -173Q18 -173 9 -182T0 -204Q0 -217 9 -225T31 -234Q182 -234 182 -83V152Q182 243 273 243Q286 243 295 251T304 273Q304 286 295 295T273 304Q182 304 182 395V630Q182 782 31
782Q17 782 9 774T0 751Q0 738 9 730T31 721Q121 721 121 630V395Q121 320 166 273Q121 228 121 152V-83Q121 -173 31 -173Z" />
<glyph unicode="~" glyph-name="asciitilde" horiz-adv-x="469" d="M201 426T220 418T265 393Q286 379 297 374T326 368Q360 368 381 390Q393 404 409 404Q416 404 420 401Q438 392 438 377Q438 369 432 361Q393 310 326 310Q298 310 277 319T232 345Q212 359
200 363T175 368Q134 368 98 327Q89 315 73 315Q63 315 58 319Q43 328 43 342Q43 352 49 359Q76 391 108 408T175 426Q201 426 220 418Z" />
<glyph unicode="&#xa0;" glyph-name="uni00A0" horiz-adv-x="293" />
<glyph unicode="&#xa1;" glyph-name="exclamdown" horiz-adv-x="251" d="M120 -216T129 -225T151 -234Q164 -234 172 -225T181 -203V346Q181 358 172 367T151 376Q139 376 130 367T120 346V-203Q120 -216 129 -225ZM172 447T186 461T201 497Q201 518 187 533T151
548Q129 548 115 534T100 497Q100 476 115 462T151 447Q172 447 186 461Z" />
<glyph unicode="&#xa2;" glyph-name="cent" horiz-adv-x="593" d="M450 456T413 475L258 62Q293 50 332 50Q420 50 473 99Q482 108 494 108Q505 108 512 101Q522 92 522 79Q522 68 514 61Q479 29 432 12T332 -6Q280 -6 238 10L207 -74Q199 -98 177 -98Q166 -98
160 -92T153 -74Q153 -64 157 -55L190 32Q129 68 95 131T60 273Q60 352 93 415T185 515T317 552Q354 552 382 545L414 629Q421 650 443 650Q454 650 460 643T466 624Q466 615 464 611L433 528Q488 501 526 453Q533 443 533 436Q533 422 519 414Q512 408 503 408Q489
408 480 420Q450 456 413 475ZM362 492Q343 496 317 496Q259 496 214 468T145 388T120 273Q120 214 144 166T210 87L362 492Z" />
<glyph unicode="&#xa3;" glyph-name="sterling" horiz-adv-x="508" d="M421 72T429 86L449 126Q455 140 475 140Q488 140 496 132T505 110Q505 102 502 96L463 18Q459 10 451 5T435 0H111Q98 0 90 9T81 30L83 42Q141 176 141 321H70Q57 321 49 330T40 351Q40 364
48 372T70 381H136L129 402Q102 480 92 518T81 592Q81 644 107 687T177 757T273 783Q353 783 409 727Q423 713 431 701T440 678Q440 665 432 657T410 648Q395 648 388 658Q342 722 273 722Q238 722 208 705T159 657T141 592Q141 562 148 535T172 457Q176 444 182
426T197 381H354Q367 381 375 373T384 351Q384 339 376 330T354 321H202Q202 191 156 60H415Q421 72 429 86Z" />
<glyph unicode="&#xa4;" glyph-name="currency" horiz-adv-x="480" d="M392 565T402 565Q416 565 425 556T435 532Q435 517 425 507L379 464Q408 417 408 369Q408 323 381 278L425 232Q435 221 435 208Q435 194 426 184T402 174Q388 174 379 183L334 230Q291 202
241 202Q193 202 148 229L100 182Q90 174 78 174Q64 174 55 184T45 208Q45 221 55 231L101 275Q72 321 72 369Q72 417 99 462L55 508Q45 518 45 532Q45 546 54 555T78 565Q91 565 101 557L145 509Q189 537 239 537Q289 537 332 511L378 556Q392 565 402 565ZM199
471T170 441T140 370Q140 329 169 299T240 268Q280 268 310 298T340 370Q340 411 310 441T240 471Q199 471 170 441Z" />
<glyph unicode="&#xa5;" glyph-name="yen" horiz-adv-x="633" d="M613 781T620 773T628 753Q628 742 623 734L381 347H476Q488 347 495 340T503 320Q503 308 496 301T476 293H348L347 292V227H476Q488 227 495 220T503 200Q503 188 496 181T476 173H347V30Q347
17 339 9T317 0Q304 0 296 8T287 30V173H158Q146 173 139 180T131 200Q131 212 138 219T158 227H287V292L286 293H158Q146 293 139 300T131 320Q131 332 138 339T158 347H253L11 734Q5 745 5 753Q5 765 13 773T34 781Q47 781 58 769L317 347L572 762Q579 773 585
777T601 781Q613 781 620 773Z" />
<glyph unicode="&#xa6;" glyph-name="brokenbar" horiz-adv-x="234" d="M83 853T91 862T113 871Q126 871 135 862T144 840V476Q144 463 135 455T113 446Q100 446 92 454T83 476V840Q83 853 91 862ZM83 165T91 173T113 182Q126 182 135 174T144 152V-204Q144 -217
135 -225T113 -234Q100 -234 92 -226T83 -204V152Q83 165 91 173Z" />
<glyph unicode="&#xa7;" glyph-name="section" horiz-adv-x="469" d="M285 781T329 756T399 687T425 592Q425 579 417 571T395 562Q382 562 374 570T365 592Q365 627 347 656T298 703T233 721Q198 721 168 704T120 657T101 592Q101 557 119 527T167 480T233 462Q285
462 329 437T399 368T425 273Q425 224 403 182T338 114Q380 87 402 45T425 -45Q425 -96 399 -139T329 -208T233 -234Q180 -234 136 -209T67 -140T41 -45Q41 -32 49 -24T71 -15Q84 -15 92 -23T101 -45Q101 -80 119 -109T168 -156T233 -174Q267 -174 297 -157T346
-110T365 -45Q365 -11 347 19T298 66T233 84Q181 84 137 109T67 178T41 273Q41 322 63 363T128 433Q85 460 63 501T41 592Q41 643 66 686T136 755T233 781Q285 781 329 756ZM198 403T168 386T119 338T101 273Q101 238 119 208T167 161T233 144Q268 144 298 161T347
209T365 273Q365 308 347 338T298 385T233 403Q198 403 168 386Z" />
<glyph unicode="&#xa8;" glyph-name="dieresis" horiz-adv-x="469" d="M173 730T187 715T202 679Q202 657 188 642T151 627Q129 627 114 642T99 679Q99 700 114 715T151 730Q173 730 187 715ZM373 730T387 715T402 679Q402 657 388 642T351 627Q329 627 314 642T299
679Q299 700 314 715T351 730Q373 730 387 715Z" />
<glyph unicode="&#xa9;" glyph-name="copyright" horiz-adv-x="859" d="M541 783T631 730T774 587T827 392Q827 284 775 194T634 52T436 0Q328 0 239 52T97 194T45 392Q45 497 98 587T240 730T436 783Q541 783 631 730ZM346 727T269 682T147 560T101 392Q101 301
146 224T268 101T436 56Q527 56 604 101T726 224T772 392Q772 483 727 560T605 682T436 727Q346 727 269 682ZM486 646T534 623T618 556Q625 548 625 537Q625 521 610 512Q604 507 593 507Q579 507 568 519Q540 553 506 568T427 584Q378 584 340 560T281 492T259
392Q259 337 282 294T346 225T441 200Q515 200 562 242Q574 252 585 252Q595 252 605 244Q616 233 616 221Q616 209 606 200Q574 170 532 155T441 139Q371 139 315 172T226 263T193 392Q193 464 223 522T307 613T427 646Q486 646 534 623Z" />
<glyph unicode="&#xaa;" glyph-name="ordfeminine" horiz-adv-x="470" d="M289 792T333 767T402 697T428 598V435Q428 422 420 414T400 405Q385 405 378 413T370 435V468Q345 438 310 421T234 404Q179 404 135 429T66 499T40 598Q40 653 65 697T135 766T234 792Q289
792 333 767ZM293 462T331 501T370 598Q370 657 332 695T234 734Q176 734 137 696T98 598Q98 540 137 501T234 462Q293 462 331 501Z" />
<glyph unicode="&#xab;" glyph-name="guillemotleft" horiz-adv-x="469" d="M223 39T223 30Q223 17 214 9T192 0Q182 0 176 4T164 19L45 256Q41 264 41 273Q41 281 44 288L164 527Q174 546 192 546Q205 546 214 538T223 516Q223 509 220 503L105 273L220 43Q223
39 223 30ZM430 39T430 30Q430 17 421 9T399 0Q389 0 383 4T371 19L252 256Q248 264 248 273Q248 281 251 288L371 527Q381 546 399 546Q412 546 421 538T430 516Q430 509 427 503L312 273L427 43Q430 39 430 30Z" />
<glyph unicode="&#xac;" glyph-name="logicalnot" horiz-adv-x="547" d="M57 486T49 495T40 517Q40 530 48 538T70 547H475Q488 547 496 539T505 517V354Q505 341 497 333T475 324Q462 324 454 332T445 354V486H70Q57 486 49 495Z" />
<glyph unicode="&#xad;" glyph-name="uni00AD" horiz-adv-x="391" d="M325 304T334 295T343 273Q343 260 334 252T312 243H69Q56 243 48 251T39 273Q39 286 47 295T69 304H312Q325 304 334 295Z" />
<glyph unicode="&#xae;" glyph-name="registered" horiz-adv-x="859" d="M541 783T631 730T774 587T827 392Q827 284 775 194T634 52T436 0Q328 0 239 52T97 194T45 392Q45 497 98 587T240 730T436 783Q541 783 631 730ZM527 56T604 101T726 224T772 392Q772 483
727 560T605 682T436 727Q346 727 269 682T147 560T101 392Q101 301 146 224T268 101T436 56Q527 56 604 101ZM606 193Q614 180 614 170Q614 159 607 153T585 147Q569 147 560 162L446 342H439H346V177Q346 164 338 156T317 147Q304 147 296 155T288 177V622Q288
635 296 643T317 652H439Q513 652 559 609T606 496Q606 447 578 409T504 354L606 193ZM346 396H439Q488 396 518 422T549 496Q549 544 519 571T439 598H346V396Z" />
<glyph unicode="&#xaf;" glyph-name="overscore" horiz-adv-x="547" d="M418 692T426 683T435 661Q435 648 427 640T405 631H140Q127 631 119 639T110 661Q110 674 118 683T140 692H405Q418 692 426 683Z" />
<glyph unicode="&#xb0;" glyph-name="degree" horiz-adv-x="469" d="M286 790T330 764T399 694T425 598Q425 545 399 501T329 431T233 405Q181 405 137 431T67 501T41 598Q41 650 66 694T136 764T233 790Q286 790 330 764ZM198 729T168 711T119 663T101 598Q101
562 119 532T167 484T233 466Q268 466 298 484T347 532T365 598Q365 633 347 663T298 711T233 729Q198 729 168 711Z" />
<glyph unicode="&#xb1;" glyph-name="plusminus" horiz-adv-x="547" d="M242 611T250 619T272 628Q285 628 294 620T303 598V425H475Q488 425 496 417T505 395Q505 382 497 374T475 365H303V192Q303 179 294 171T272 162Q259 162 251 170T242 192V365H70Q57 365
49 373T40 395Q40 408 48 416T70 425H242V598Q242 611 250 619ZM488 61T496 52T505 30Q505 17 497 9T475 0H70Q57 0 49 8T40 30Q40 43 48 52T70 61H475Q488 61 496 52Z" />
<glyph unicode="&#xb2;" glyph-name="uni00B2" horiz-adv-x="357" d="M293 440T302 433T312 412Q312 399 303 393T280 386H86Q72 386 63 395T54 418Q54 431 62 441L226 624Q244 643 244 670Q244 699 224 718T176 737Q142 737 120 717T98 666Q98 652 92 643T71
634Q59 634 52 643T45 666Q45 719 83 754T178 790Q230 790 265 756T300 671Q300 644 288 624T250 577L124 440H280Q293 440 302 433Z" />
<glyph unicode="&#xb3;" glyph-name="uni00B3" horiz-adv-x="354" d="M220 789T254 758T289 681Q289 653 273 628T234 594Q264 581 281 557T299 497Q299 447 264 414T176 380Q120 380 83 414T45 501Q45 516 52 524T74 533Q96 533 96 501Q96 471 119 451T175 431Q204
431 224 449T244 496Q244 526 227 546T185 567Q150 567 150 593Q150 621 180 621Q234 621 234 680Q234 705 218 720T171 736Q138 736 120 721T98 680Q96 669 90 662T75 654Q62 654 54 661T46 682Q46 728 81 758T169 789Q220 789 254 758Z" />
<glyph unicode="&#xb4;" glyph-name="acute" horiz-adv-x="273" d="M181 781T194 781Q207 781 216 772T225 750Q225 738 216 729L93 606Q85 598 73 598Q60 598 51 607T42 629Q42 640 49 649L172 772Q181 781 194 781Z" />
<glyph unicode="&#xb5;" glyph-name="uni00B5" horiz-adv-x="673" d="M567 547T575 539T583 517V30Q583 17 575 9T553 0Q540 0 532 8T523 30V88Q492 43 443 18T333 -7Q267 -7 218 20T140 97V-204Q140 -218 132 -226T110 -234Q97 -234 89 -226T80 -204V517Q80 531
88 539T110 547Q124 547 132 539T140 517V248Q140 192 164 148T233 78T333 53Q388 53 431 73T498 129T523 211V517Q523 531 531 539T553 547Q567 547 575 539Z" />
<glyph unicode="&#xb6;" glyph-name="paragraph" horiz-adv-x="555" d="M308 17T299 9T277 0Q264 0 256 8T247 30V397Q188 397 142 422T71 492T45 589Q45 641 71 685T141 756T237 782H480Q493 782 501 773T510 751Q510 738 499 730T470 721V30Q470 17 462 9T440
0Q427 0 418 8T409 30V721H308V30Q308 17 299 9Z" />
<glyph unicode="&#xb7;" glyph-name="middot" horiz-adv-x="195" d="M115 425T129 411T144 375Q144 353 130 339T94 324Q73 324 58 338T43 375Q43 396 57 410T94 425Q115 425 129 411Z" />
<glyph unicode="&#xb8;" glyph-name="cedilla" horiz-adv-x="313" d="M238 -51T257 -73T276 -128Q276 -172 238 -202T149 -232Q101 -232 70 -212T38 -166Q38 -153 46 -144T68 -135Q76 -135 82 -138T94 -146T103 -154Q113 -162 122 -166T149 -171Q175 -171 191
-160T208 -130Q208 -111 195 -100T151 -79Q135 -75 127 -69T119 -52Q119 -46 124 -33L144 16Q152 38 179 38Q191 38 198 31T206 12Q206 6 203 0L188 -36Q238 -51 257 -73Z" />
<glyph unicode="&#xb9;" glyph-name="uni00B9" horiz-adv-x="254" d="M47 685T37 685Q10 685 10 710Q10 727 31 735L138 774Q153 780 166 780Q179 780 186 773T194 749V416Q193 400 187 393T166 386Q137 386 137 416L138 715L52 687Q47 685 37 685Z" />
<glyph unicode="&#xba;" glyph-name="ordmasculine" horiz-adv-x="468" d="M289 792T333 767T402 697T428 598Q428 543 403 499T333 430T234 404Q179 404 135 429T66 499T40 598Q40 653 65 697T135 766T234 792Q289 792 333 767ZM176 734T137 696T98 598Q98 540
137 501T234 462Q293 462 331 501T370 598Q370 657 332 695T234 734Q176 734 137 696Z" />
<glyph unicode="&#xbb;" glyph-name="guillemotright" horiz-adv-x="469" d="M41 511T41 516Q41 529 49 537T71 546Q80 546 86 542T99 527L219 288Q223 278 223 273Q223 266 218 256L99 19Q94 9 88 5T71 0Q58 0 50 8T41 30Q41 37 43 43L158 273L43 503Q41 511
41 516ZM248 511T248 516Q248 529 256 537T278 546Q287 546 293 542T306 527L426 288Q430 278 430 273Q430 266 425 256L306 19Q301 9 295 5T278 0Q265 0 257 8T248 30Q248 37 250 43L365 273L250 503Q248 511 248 516Z" />
<glyph unicode="&#xbc;" glyph-name="onequarter" horiz-adv-x="743" d="M47 685T37 685Q10 685 10 710Q10 727 31 735L138 774Q153 780 166 780Q179 780 186 773T194 749V416Q193 400 187 393T166 386Q137 386 137 416L138 715L52 687Q47 685 37 685ZM596 790T612
790Q625 790 632 783T639 765Q639 753 632 743L153 16Q143 0 126 0Q113 0 106 7T99 26Q99 37 106 47L588 779Q596 790 612 790ZM413 87T403 96T392 120Q392 137 405 153L579 378Q593 395 612 395Q625 395 634 387T643 363V140H680Q708 140 708 113Q708 87 680 87H643V30Q643
0 615 0Q586 0 586 30V87H429Q413 87 403 96ZM458 140H589L590 312L458 140Z" />
<glyph unicode="&#xbd;" glyph-name="onehalf" horiz-adv-x="761" d="M47 685T37 685Q10 685 10 710Q10 727 31 735L138 774Q153 780 166 780Q179 780 186 773T194 749V416Q193 400 187 393T166 386Q137 386 137 416L138 715L52 687Q47 685 37 685ZM613 790T629
790Q642 790 649 783T656 765Q656 753 649 743L170 16Q160 0 143 0Q130 0 123 7T116 26Q116 37 123 47L605 779Q613 790 629 790ZM722 54T731 47T741 26Q741 13 732 7T709 0H515Q501 0 492 9T483 32Q483 45 491 55L655 238Q673 257 673 284Q673 313 653 332T605
351Q571 351 549 331T527 280Q527 266 521 257T500 248Q488 248 481 257T474 280Q474 333 512 368T607 404Q659 404 694 370T729 285Q729 258 717 238T679 191L553 54H709Q722 54 731 47Z" />
<glyph unicode="&#xbe;" glyph-name="threequarters" horiz-adv-x="819" d="M220 789T254 758T289 681Q289 653 273 628T234 594Q264 581 281 557T299 497Q299 447 264 414T176 380Q120 380 83 414T45 501Q45 516 52 524T74 533Q96 533 96 501Q96 471 119 451T175
431Q204 431 224 449T244 496Q244 526 227 546T185 567Q150 567 150 593Q150 621 180 621Q234 621 234 680Q234 705 218 720T171 736Q138 736 120 721T98 680Q96 669 90 662T75 654Q62 654 54 661T46 682Q46 728 81 758T169 789Q220 789 254 758ZM641 790T657 790Q670
790 677 783T684 765Q684 753 677 743L198 16Q188 0 171 0Q158 0 151 7T144 26Q144 37 151 47L633 779Q641 790 657 790ZM484 87T474 96T463 120Q463 137 476 153L650 378Q664 395 683 395Q696 395 705 387T714 363V140H751Q779 140 779 113Q779 87 751 87H714V30Q714
0 686 0Q657 0 657 30V87H500Q484 87 474 96ZM529 140H660L661 312L529 140Z" />
<glyph unicode="&#xbf;" glyph-name="questiondown" horiz-adv-x="547" d="M205 -176T152 -147T69 -67T39 46Q39 90 53 124T88 183T150 246L187 281Q241 335 241 418Q241 431 249 440T272 449Q285 449 293 441T302 418Q302 377 283 331T234 254L199 220Q165 188
145 166T112 112T99 40Q99 -4 121 -39T182 -95T272 -116Q348 -116 396 -68T444 56Q444 69 452 77T474 85Q488 85 496 77T505 56Q505 -11 475 -64T392 -146T272 -176Q205 -176 152 -147ZM251 520T236 534T221 570Q221 592 236 606T272 621Q293 621 307 606T322 570Q322
549 308 535T272 520Q251 520 236 534Z" />
<glyph unicode="&#xc0;" glyph-name="Agrave" horiz-adv-x="703" d="M690 37T690 30Q690 18 681 9T660 0Q640 0 632 19L558 196H151L77 19Q70 0 49 0Q35 0 27 9T19 30Q19 37 22 43L325 760Q333 781 354 781Q374 781 383 760L687 43Q690 37 690 30ZM535 250L354
682L174 250H535ZM201 1012T201 1025Q201 1038 210 1047T232 1056Q244 1056 253 1047L376 924Q383 917 383 904Q383 891 375 882T353 873Q343 873 332 881L209 1004Q201 1012 201 1025Z" />
<glyph unicode="&#xc1;" glyph-name="Aacute" horiz-adv-x="703" d="M690 37T690 30Q690 18 681 9T660 0Q640 0 632 19L558 196H151L77 19Q70 0 49 0Q35 0 27 9T19 30Q19 37 22 43L325 760Q333 781 354 781Q374 781 383 760L687 43Q690 37 690 30ZM535 250L354
682L174 250H535ZM445 1045T458 1045Q471 1045 480 1036T489 1014Q489 1002 480 993L357 870Q349 862 337 862Q324 862 315 871T306 893Q306 904 313 913L436 1036Q445 1045 458 1045Z" />
<glyph unicode="&#xc2;" glyph-name="Acircumflex" horiz-adv-x="703" d="M690 37T690 30Q690 18 681 9T660 0Q640 0 632 19L558 196H151L77 19Q70 0 49 0Q35 0 27 9T19 30Q19 37 22 43L325 760Q333 781 354 781Q374 781 383 760L687 43Q690 37 690 30ZM535 250L354
682L174 250H535ZM241 882T232 882Q218 882 209 890T200 912Q200 929 216 939L337 1020Q345 1024 352 1024Q359 1024 367 1020L488 939Q504 929 504 912Q504 899 495 891T473 882Q463 882 454 888L352 956L250 888Q241 882 232 882Z" />
<glyph unicode="&#xc3;" glyph-name="Atilde" horiz-adv-x="703" d="M690 37T690 30Q690 18 681 9T660 0Q640 0 632 19L558 196H151L77 19Q70 0 49 0Q35 0 27 9T19 30Q19 37 22 43L325 760Q333 781 354 781Q374 781 383 760L687 43Q690 37 690 30ZM535 250L354
682L174 250H535ZM313 1000T327 993T362 967Q382 950 391 945T409 939Q424 939 435 969Q439 981 449 987T471 990Q493 984 493 965Q493 959 490 953Q475 917 457 902T413 886Q392 886 373 896T340 920Q324 936 314 942T291 949Q279 949 270 939T249 906Q240 888
221 888Q209 888 203 895T196 912Q196 919 199 926Q216 965 238 982T290 1000Q313 1000 327 993Z" />
<glyph unicode="&#xc4;" glyph-name="Adieresis" horiz-adv-x="703" d="M690 37T690 30Q690 18 681 9T660 0Q640 0 632 19L558 196H151L77 19Q70 0 49 0Q35 0 27 9T19 30Q19 37 22 43L325 760Q333 781 354 781Q374 781 383 760L687 43Q690 37 690 30ZM535 250L354
682L174 250H535ZM274 994T288 979T303 943Q303 921 289 906T252 891Q230 891 215 906T200 943Q200 964 215 979T252 994Q274 994 288 979ZM474 994T488 979T503 943Q503 921 489 906T452 891Q430 891 415 906T400 943Q400 964 415 979T452 994Q474 994 488 979Z"
/>
<glyph unicode="&#xc5;" glyph-name="Aring" horiz-adv-x="703" d="M690 37T690 30Q690 18 681 9T660 0Q640 0 632 19L558 196H151L77 19Q70 0 49 0Q35 0 27 9T19 30Q19 37 22 43L325 760Q333 781 354 781Q374 781 383 760L687 43Q690 37 690 30ZM535 250L354
682L174 250H535ZM390 1015T417 988T444 923Q444 886 417 859T352 831Q315 831 288 858T260 923Q260 961 287 988T352 1015Q390 1015 417 988ZM330 977T315 961T299 923Q299 901 314 886T352 870Q374 870 390 885T406 923Q406 946 391 961T352 977Q330 977 315
961Z" />
<glyph unicode="&#xc6;" glyph-name="AE" horiz-adv-x="932" d="M869 60T878 51T887 30Q887 17 878 9T857 0H476Q463 0 455 8T446 30V196H182L78 19Q71 0 50 0Q36 0 28 9T19 30Q19 35 23 43L441 753Q450 768 462 774T494 781H857Q869 781 878 773T887 751Q887
739 878 730T857 721H506V421H737Q750 421 758 413T767 391Q767 378 759 369T737 360H506V60H857Q869 60 878 51ZM446 250V644L214 250H446Z" />
<glyph unicode="&#xc7;" glyph-name="Ccedilla" horiz-adv-x="767" d="M591 791T698 702Q707 695 707 682Q707 670 699 661T677 651Q666 651 652 663Q576 731 451 731Q363 731 287 684T165 559T120 391Q120 299 164 221T285 96T451 50Q569 50 658 123Q665 128
673 128Q685 128 694 119T704 97Q704 84 697 76Q611 -10 451 -10Q346 -10 256 44T113 191T60 391Q60 498 112 590T254 736T451 791Q591 791 698 702ZM527 -51T546 -73T565 -128Q565 -172 527 -202T438 -232Q390 -232 359 -212T327 -166Q327 -153 335 -144T357 -135Q365
-135 371 -138T383 -146T392 -154Q402 -162 411 -166T438 -171Q464 -171 480 -160T497 -130Q497 -111 484 -100T440 -79Q424 -75 416 -69T408 -52Q408 -46 413 -33L433 16Q441 38 468 38Q480 38 487 31T495 12Q495 6 492 0L477 -36Q527 -51 546 -73Z" />
<glyph unicode="&#xc8;" glyph-name="Egrave" horiz-adv-x="686" d="M623 60T632 51T641 30Q641 17 632 9T611 0H130Q117 0 109 8T100 30V751Q100 764 108 772T130 781H611Q623 781 632 773T641 751Q641 739 632 730T611 721H160V421H491Q504 421 512 413T521
391Q521 378 513 369T491 360H160V60H611Q623 60 632 51ZM223 1012T223 1025Q223 1038 232 1047T254 1056Q266 1056 275 1047L398 924Q405 917 405 904Q405 891 397 882T375 873Q365 873 354 881L231 1004Q223 1012 223 1025Z" />
<glyph unicode="&#xc9;" glyph-name="Eacute" horiz-adv-x="686" d="M623 60T632 51T641 30Q641 17 632 9T611 0H130Q117 0 109 8T100 30V751Q100 764 108 772T130 781H611Q623 781 632 773T641 751Q641 739 632 730T611 721H160V421H491Q504 421 512 413T521
391Q521 378 513 369T491 360H160V60H611Q623 60 632 51ZM467 1045T480 1045Q493 1045 502 1036T511 1014Q511 1002 502 993L379 870Q371 862 359 862Q346 862 337 871T328 893Q328 904 335 913L458 1036Q467 1045 480 1045Z" />
<glyph unicode="&#xca;" glyph-name="Ecircumflex" horiz-adv-x="686" d="M623 60T632 51T641 30Q641 17 632 9T611 0H130Q117 0 109 8T100 30V751Q100 764 108 772T130 781H611Q623 781 632 773T641 751Q641 739 632 730T611 721H160V421H491Q504 421 512 413T521
391Q521 378 513 369T491 360H160V60H611Q623 60 632 51ZM263 882T254 882Q240 882 231 890T222 912Q222 929 238 939L359 1020Q367 1024 374 1024Q381 1024 389 1020L510 939Q526 929 526 912Q526 899 517 891T495 882Q485 882 476 888L374 956L272 888Q263 882
254 882Z" />
<glyph unicode="&#xcb;" glyph-name="Edieresis" horiz-adv-x="686" d="M623 60T632 51T641 30Q641 17 632 9T611 0H130Q117 0 109 8T100 30V751Q100 764 108 772T130 781H611Q623 781 632 773T641 751Q641 739 632 730T611 721H160V421H491Q504 421 512 413T521
391Q521 378 513 369T491 360H160V60H611Q623 60 632 51ZM296 994T310 979T325 943Q325 921 311 906T274 891Q252 891 237 906T222 943Q222 964 237 979T274 994Q296 994 310 979ZM496 994T510 979T525 943Q525 921 511 906T474 891Q452 891 437 906T422 943Q422
964 437 979T474 994Q496 994 510 979Z" />
<glyph unicode="&#xcc;" glyph-name="Igrave" horiz-adv-x="260" d="M100 764T108 772T130 781Q143 781 151 773T160 751V30Q160 17 152 9T130 0Q117 0 109 8T100 30V751Q100 764 108 772ZM-21 1012T-21 1025Q-21 1038 -12 1047T10 1056Q22 1056 31 1047L154 924Q161
917 161 904Q161 891 153 882T131 873Q121 873 110 881L-13 1004Q-21 1012 -21 1025Z" />
<glyph unicode="&#xcd;" glyph-name="Iacute" horiz-adv-x="260" d="M100 764T108 772T130 781Q143 781 151 773T160 751V30Q160 17 152 9T130 0Q117 0 109 8T100 30V751Q100 764 108 772ZM223 1045T236 1045Q249 1045 258 1036T267 1014Q267 1002 258 993L135
870Q127 862 115 862Q102 862 93 871T84 893Q84 904 91 913L214 1036Q223 1045 236 1045Z" />
<glyph unicode="&#xce;" glyph-name="Icircumflex" horiz-adv-x="260" d="M100 764T108 772T130 781Q143 781 151 773T160 751V30Q160 17 152 9T130 0Q117 0 109 8T100 30V751Q100 764 108 772ZM19 882T10 882Q-4 882 -13 890T-22 912Q-22 929 -6 939L115 1020Q123
1024 130 1024Q137 1024 145 1020L266 939Q282 929 282 912Q282 899 273 891T251 882Q241 882 232 888L130 956L28 888Q19 882 10 882Z" />
<glyph unicode="&#xcf;" glyph-name="Idieresis" horiz-adv-x="260" d="M100 764T108 772T130 781Q143 781 151 773T160 751V30Q160 17 152 9T130 0Q117 0 109 8T100 30V751Q100 764 108 772ZM52 994T66 979T81 943Q81 921 67 906T30 891Q8 891 -7 906T-22 943Q-22
964 -7 979T30 994Q52 994 66 979ZM252 994T266 979T281 943Q281 921 267 906T230 891Q208 891 193 906T178 943Q178 964 193 979T230 994Q252 994 266 979Z" />
<glyph unicode="&#xd0;" glyph-name="Eth" horiz-adv-x="761" d="M423 781T512 731T651 593T701 391Q701 278 651 189T512 50T310 0H130Q117 0 109 8T100 30V364H27Q15 364 8 371T0 391Q0 403 7 410T27 418H100V751Q100 765 108 773T130 781H310Q423 781 512 731ZM406
54T481 97T598 218T641 391Q641 487 599 563T481 683T310 727H160V418H325Q337 418 344 411T352 391Q352 379 345 372T325 364H160V54H310Q406 54 481 97Z" />
<glyph unicode="&#xd1;" glyph-name="Ntilde" horiz-adv-x="821" d="M661 764T669 772T691 781Q703 781 712 773T721 751V30Q721 17 712 9T691 0Q677 0 669 9L160 671V30Q160 17 152 9T130 0Q117 0 109 8T100 30V751Q100 764 108 772T130 781Q144 781 153 771L661
110V751Q661 764 669 772ZM391 980T410 972T455 947Q476 933 487 928T516 922Q550 922 571 944Q583 958 599 958Q606 958 610 955Q628 946 628 931Q628 923 622 915Q583 864 516 864Q488 864 467 873T422 899Q402 913 390 917T365 922Q324 922 288 881Q279 869
263 869Q253 869 248 873Q233 882 233 896Q233 906 239 913Q266 945 298 962T365 980Q391 980 410 972Z" />
<glyph unicode="&#xd2;" glyph-name="Ograve" horiz-adv-x="921" d="M573 791T664 739T808 595T861 391Q861 278 809 187T665 43T461 -10Q348 -10 257 42T113 186T60 391Q60 503 112 594T256 738T461 791Q573 791 664 739ZM365 731T287 687T165 564T120 391Q120
295 164 217T287 95T461 50Q556 50 634 94T756 217T801 391Q801 486 757 564T634 686T461 731Q365 731 287 687ZM310 1012T310 1025Q310 1038 319 1047T341 1056Q353 1056 362 1047L485 924Q492 917 492 904Q492 891 484 882T462 873Q452 873 441 881L318 1004Q310
1012 310 1025Z" />
<glyph unicode="&#xd3;" glyph-name="Oacute" horiz-adv-x="921" d="M573 791T664 739T808 595T861 391Q861 278 809 187T665 43T461 -10Q348 -10 257 42T113 186T60 391Q60 503 112 594T256 738T461 791Q573 791 664 739ZM365 731T287 687T165 564T120 391Q120
295 164 217T287 95T461 50Q556 50 634 94T756 217T801 391Q801 486 757 564T634 686T461 731Q365 731 287 687ZM554 1045T567 1045Q580 1045 589 1036T598 1014Q598 1002 589 993L466 870Q458 862 446 862Q433 862 424 871T415 893Q415 904 422 913L545 1036Q554
1045 567 1045Z" />
<glyph unicode="&#xd4;" glyph-name="Ocircumflex" horiz-adv-x="921" d="M573 791T664 739T808 595T861 391Q861 278 809 187T665 43T461 -10Q348 -10 257 42T113 186T60 391Q60 503 112 594T256 738T461 791Q573 791 664 739ZM365 731T287 687T165 564T120 391Q120
295 164 217T287 95T461 50Q556 50 634 94T756 217T801 391Q801 486 757 564T634 686T461 731Q365 731 287 687ZM350 882T341 882Q327 882 318 890T309 912Q309 929 325 939L446 1020Q454 1024 461 1024Q468 1024 476 1020L597 939Q613 929 613 912Q613 899 604
891T582 882Q572 882 563 888L461 956L359 888Q350 882 341 882Z" />
<glyph unicode="&#xd5;" glyph-name="Otilde" horiz-adv-x="921" d="M573 791T664 739T808 595T861 391Q861 278 809 187T665 43T461 -10Q348 -10 257 42T113 186T60 391Q60 503 112 594T256 738T461 791Q573 791 664 739ZM365 731T287 687T165 564T120 391Q120
295 164 217T287 95T461 50Q556 50 634 94T756 217T801 391Q801 486 757 564T634 686T461 731Q365 731 287 687ZM441 980T460 972T505 947Q526 933 537 928T566 922Q600 922 621 944Q633 958 649 958Q656 958 660 955Q678 946 678 931Q678 923 672 915Q633 864
566 864Q538 864 517 873T472 899Q452 913 440 917T415 922Q374 922 338 881Q329 869 313 869Q303 869 298 873Q283 882 283 896Q283 906 289 913Q316 945 348 962T415 980Q441 980 460 972Z" />
<glyph unicode="&#xd6;" glyph-name="Odieresis" horiz-adv-x="921" d="M573 791T664 739T808 595T861 391Q861 278 809 187T665 43T461 -10Q348 -10 257 42T113 186T60 391Q60 503 112 594T256 738T461 791Q573 791 664 739ZM365 731T287 687T165 564T120 391Q120
295 164 217T287 95T461 50Q556 50 634 94T756 217T801 391Q801 486 757 564T634 686T461 731Q365 731 287 687ZM383 994T397 979T412 943Q412 921 398 906T361 891Q339 891 324 906T309 943Q309 964 324 979T361 994Q383 994 397 979ZM583 994T597 979T612 943Q612
921 598 906T561 891Q539 891 524 906T509 943Q509 964 524 979T561 994Q583 994 597 979Z" />
<glyph unicode="&#xd7;" glyph-name="multiply" horiz-adv-x="469" d="M382 547T395 547Q408 547 416 539T425 517Q425 503 417 495L276 354L417 214Q425 204 425 192Q425 179 417 171T395 162Q383 162 374 169L233 311L92 169Q84 162 71 162Q58 162 50 170T41
192Q41 206 48 214L189 354L48 495Q40 503 41 514Q41 529 49 538T71 547Q84 547 93 538L233 398L373 538Q382 547 395 547Z" />
<glyph unicode="&#xd8;" glyph-name="Oslash" horiz-adv-x="859" d="M813 599T837 533T861 391Q861 278 809 187T665 43T461 -10Q383 -10 314 16T191 89L110 8Q102 0 89 0Q75 0 67 9T58 31Q58 43 66 51L149 134Q106 186 83 251T60 391Q60 503 112 594T256 738T461
791Q537 791 605 767T726 696L804 773Q812 781 825 781Q838 781 847 772T857 751Q857 740 848 731L769 652Q813 599 837 533ZM365 731T287 687T165 564T120 391Q120 328 139 273T195 172L679 656Q634 692 579 711T461 731Q365 731 287 687ZM556 50T634 94T756 217T801
391Q801 454 781 511T723 613L239 129Q284 91 340 71T461 50Q556 50 634 94Z" />
<glyph unicode="&#xd9;" glyph-name="Ugrave" horiz-adv-x="801" d="M100 765T108 773T130 781Q144 781 152 773T160 751V255Q160 194 190 146T275 71T400 44Q470 44 524 71T610 146T641 255V751Q641 765 649 773T671 781Q685 781 693 773T701 751V255Q701 176
663 115T556 19T400 -16Q313 -16 245 18T138 114T100 255V751Q100 765 108 773ZM250 1012T250 1025Q250 1038 259 1047T281 1056Q293 1056 302 1047L425 924Q432 917 432 904Q432 891 424 882T402 873Q392 873 381 881L258 1004Q250 1012 250 1025Z" />
<glyph unicode="&#xda;" glyph-name="Uacute" horiz-adv-x="801" d="M100 765T108 773T130 781Q144 781 152 773T160 751V255Q160 194 190 146T275 71T400 44Q470 44 524 71T610 146T641 255V751Q641 765 649 773T671 781Q685 781 693 773T701 751V255Q701 176
663 115T556 19T400 -16Q313 -16 245 18T138 114T100 255V751Q100 765 108 773ZM494 1045T507 1045Q520 1045 529 1036T538 1014Q538 1002 529 993L406 870Q398 862 386 862Q373 862 364 871T355 893Q355 904 362 913L485 1036Q494 1045 507 1045Z" />
<glyph unicode="&#xdb;" glyph-name="Ucircumflex" horiz-adv-x="801" d="M100 765T108 773T130 781Q144 781 152 773T160 751V255Q160 194 190 146T275 71T400 44Q470 44 524 71T610 146T641 255V751Q641 765 649 773T671 781Q685 781 693 773T701 751V255Q701
176 663 115T556 19T400 -16Q313 -16 245 18T138 114T100 255V751Q100 765 108 773ZM290 882T281 882Q267 882 258 890T249 912Q249 929 265 939L386 1020Q394 1024 401 1024Q408 1024 416 1020L537 939Q553 929 553 912Q553 899 544 891T522 882Q512 882 503 888L401
956L299 888Q290 882 281 882Z" />
<glyph unicode="&#xdc;" glyph-name="Udieresis" horiz-adv-x="801" d="M100 765T108 773T130 781Q144 781 152 773T160 751V255Q160 194 190 146T275 71T400 44Q470 44 524 71T610 146T641 255V751Q641 765 649 773T671 781Q685 781 693 773T701 751V255Q701
176 663 115T556 19T400 -16Q313 -16 245 18T138 114T100 255V751Q100 765 108 773ZM323 994T337 979T352 943Q352 921 338 906T301 891Q279 891 264 906T249 943Q249 964 264 979T301 994Q323 994 337 979ZM523 994T537 979T552 943Q552 921 538 906T501 891Q479
891 464 906T449 943Q449 964 464 979T501 994Q523 994 537 979Z" />
<glyph unicode="&#xdd;" glyph-name="Yacute" horiz-adv-x="633" d="M613 781T620 773T628 753Q628 742 623 734L347 292V30Q347 17 339 9T317 0Q304 0 296 8T287 30V292L11 734Q5 745 5 753Q5 765 13 773T34 781Q47 781 58 769L317 347L572 762Q579 773 585 777T601
781Q613 781 620 773ZM410 1045T423 1045Q436 1045 445 1036T454 1014Q454 1002 445 993L322 870Q314 862 302 862Q289 862 280 871T271 893Q271 904 278 913L401 1036Q410 1045 423 1045Z" />
<glyph unicode="&#xde;" glyph-name="Thorn" horiz-adv-x="605" d="M160 17T152 9T130 0Q117 0 109 8T100 30V751Q100 764 108 772T130 781Q143 781 151 773T160 751V651H330Q402 651 459 622T548 540T580 421Q580 354 548 302T459 220T330 190H160V30Q160 17
152 9ZM385 244T428 267T495 331T520 421Q520 470 496 510T428 574T330 597H160V244H330Q385 244 428 267Z" />
<glyph unicode="&#xdf;" glyph-name="germandbls" horiz-adv-x="547" d="M62 631T87 674T159 744T266 770Q319 770 361 749T428 689T453 598Q453 561 439 535T397 476Q376 452 366 436T356 400Q356 380 371 362T418 314Q464 272 489 238T514 156Q514 112 490 75T422
16T325 -6Q288 -6 253 6T196 36T174 71Q174 83 180 91T198 99Q209 99 215 96T229 84Q244 70 263 63T325 54Q386 54 420 79T454 156Q454 191 434 218T373 282Q334 317 315 342T296 399Q296 424 308 444T343 489Q369 519 381 539T393 590Q393 649 359 679T264 710Q203
710 163 670T122 568V29Q122 17 113 9T91 0Q79 0 71 8T62 29V578Q62 631 87 674Z" />
<glyph unicode="&#xe0;" glyph-name="agrave" horiz-adv-x="679" d="M418 553T482 517T582 416T619 273V30Q619 17 611 9T589 0Q576 0 568 8T559 30V108Q526 55 469 25T340 -6Q261 -6 197 30T97 131T60 273Q60 352 96 416T197 516T340 553Q418 553 482 517ZM402
50T452 79T530 159T559 273Q559 336 531 387T452 467T340 497Q278 497 228 468T149 387T120 273Q120 210 149 159T228 79T340 50Q402 50 452 79ZM189 778T189 791Q189 804 198 813T220 822Q232 822 241 813L364 690Q371 683 371 670Q371 657 363 648T341 639Q331
639 320 647L197 770Q189 778 189 791Z" />
<glyph unicode="&#xe1;" glyph-name="aacute" horiz-adv-x="679" d="M418 553T482 517T582 416T619 273V30Q619 17 611 9T589 0Q576 0 568 8T559 30V108Q526 55 469 25T340 -6Q261 -6 197 30T97 131T60 273Q60 352 96 416T197 516T340 553Q418 553 482 517ZM402
50T452 79T530 159T559 273Q559 336 531 387T452 467T340 497Q278 497 228 468T149 387T120 273Q120 210 149 159T228 79T340 50Q402 50 452 79ZM433 811T446 811Q459 811 468 802T477 780Q477 768 468 759L345 636Q337 628 325 628Q312 628 303 637T294 659Q294
670 301 679L424 802Q433 811 446 811Z" />
<glyph unicode="&#xe2;" glyph-name="acircumflex" horiz-adv-x="679" d="M418 553T482 517T582 416T619 273V30Q619 17 611 9T589 0Q576 0 568 8T559 30V108Q526 55 469 25T340 -6Q261 -6 197 30T97 131T60 273Q60 352 96 416T197 516T340 553Q418 553 482 517ZM402
50T452 79T530 159T559 273Q559 336 531 387T452 467T340 497Q278 497 228 468T149 387T120 273Q120 210 149 159T228 79T340 50Q402 50 452 79ZM229 648T220 648Q206 648 197 656T188 678Q188 695 204 705L325 786Q333 790 340 790Q347 790 355 786L476 705Q492
695 492 678Q492 665 483 657T461 648Q451 648 442 654L340 722L238 654Q229 648 220 648Z" />
<glyph unicode="&#xe3;" glyph-name="atilde" horiz-adv-x="679" d="M418 553T482 517T582 416T619 273V30Q619 17 611 9T589 0Q576 0 568 8T559 30V108Q526 55 469 25T340 -6Q261 -6 197 30T97 131T60 273Q60 352 96 416T197 516T340 553Q418 553 482 517ZM402
50T452 79T530 159T559 273Q559 336 531 387T452 467T340 497Q278 497 228 468T149 387T120 273Q120 210 149 159T228 79T340 50Q402 50 452 79ZM320 746T339 738T384 713Q405 699 416 694T445 688Q479 688 500 710Q512 724 528 724Q535 724 539 721Q557 712 557
697Q557 689 551 681Q512 630 445 630Q417 630 396 639T351 665Q331 679 319 683T294 688Q253 688 217 647Q208 635 192 635Q182 635 177 639Q162 648 162 662Q162 672 168 679Q195 711 227 728T294 746Q320 746 339 738Z" />
<glyph unicode="&#xe4;" glyph-name="adieresis" horiz-adv-x="679" d="M418 553T482 517T582 416T619 273V30Q619 17 611 9T589 0Q576 0 568 8T559 30V108Q526 55 469 25T340 -6Q261 -6 197 30T97 131T60 273Q60 352 96 416T197 516T340 553Q418 553 482 517ZM402
50T452 79T530 159T559 273Q559 336 531 387T452 467T340 497Q278 497 228 468T149 387T120 273Q120 210 149 159T228 79T340 50Q402 50 452 79ZM262 760T276 745T291 709Q291 687 277 672T240 657Q218 657 203 672T188 709Q188 730 203 745T240 760Q262 760 276
745ZM462 760T476 745T491 709Q491 687 477 672T440 657Q418 657 403 672T388 709Q388 730 403 745T440 760Q462 760 476 745Z" />
<glyph unicode="&#xe5;" glyph-name="aring" horiz-adv-x="679" d="M418 553T482 517T582 416T619 273V30Q619 17 611 9T589 0Q576 0 568 8T559 30V108Q526 55 469 25T340 -6Q261 -6 197 30T97 131T60 273Q60 352 96 416T197 516T340 553Q418 553 482 517ZM402
50T452 79T530 159T559 273Q559 336 531 387T452 467T340 497Q278 497 228 468T149 387T120 273Q120 210 149 159T228 79T340 50Q402 50 452 79ZM378 781T405 754T432 689Q432 652 405 625T340 597Q303 597 276 624T248 689Q248 727 275 754T340 781Q378 781 405
754ZM318 743T303 727T287 689Q287 667 302 652T340 636Q362 636 378 651T394 689Q394 712 379 727T340 743Q318 743 303 727Z" />
<glyph unicode="&#xe6;" glyph-name="ae" horiz-adv-x="1108" d="M889 552T946 518T1036 422T1068 283Q1068 270 1060 263T1039 255H620Q623 196 651 150T726 77T831 51Q920 51 972 100Q982 108 993 108Q1004 108 1011 102Q1022 93 1022 81Q1022 71 1013 62Q981
33 930 14T831 -5Q764 -5 709 23T619 102V30Q619 17 611 9T589 0Q576 0 568 8T559 30V108Q526 55 469 25T340 -6Q261 -6 197 30T97 131T60 273Q60 352 96 416T197 516T340 553Q424 553 491 511T592 398Q621 469 680 510T816 552Q889 552 946 518ZM402 50T452 79T530
159T559 273Q559 336 531 387T452 467T340 497Q278 497 228 468T149 387T120 273Q120 210 149 159T228 79T340 50Q402 50 452 79ZM738 496T685 444T621 307H1010Q1003 392 950 444T816 496Q738 496 685 444Z" />
<glyph unicode="&#xe7;" glyph-name="ccedilla" horiz-adv-x="593" d="M381 552T434 527T526 453Q533 443 533 436Q533 422 519 414Q512 408 503 408Q489 408 480 420Q416 496 317 496Q259 496 214 468T145 388T120 273Q120 210 147 159T222 79T332 50Q420 50
473 99Q482 108 494 108Q505 108 512 101Q522 92 522 79Q522 68 514 61Q479 29 432 12T332 -6Q255 -6 193 30T96 131T60 273Q60 352 93 415T185 515T317 552Q381 552 434 527ZM391 -51T410 -73T429 -128Q429 -172 391 -202T302 -232Q254 -232 223 -212T191 -166Q191
-153 199 -144T221 -135Q229 -135 235 -138T247 -146T256 -154Q266 -162 275 -166T302 -171Q328 -171 344 -160T361 -130Q361 -111 348 -100T304 -79Q288 -75 280 -69T272 -52Q272 -46 277 -33L297 16Q305 38 332 38Q344 38 351 31T359 12Q359 6 356 0L341 -36Q391
-51 410 -73Z" />
<glyph unicode="&#xe8;" glyph-name="egrave" horiz-adv-x="609" d="M390 552T447 518T537 422T569 283Q569 270 561 263T540 255H121Q124 196 152 150T227 77T332 51Q371 51 410 64T473 100Q483 108 494 108Q505 108 512 102Q523 93 523 81Q523 71 514 62Q482
33 431 14T332 -5Q253 -5 192 30T95 129T60 273Q60 354 92 417T183 516T317 552Q390 552 447 518ZM239 496T186 444T122 307H511Q504 392 451 444T317 496Q239 496 186 444ZM164 778T164 791Q164 804 173 813T195 822Q207 822 216 813L339 690Q346 683 346 670Q346
657 338 648T316 639Q306 639 295 647L172 770Q164 778 164 791Z" />
<glyph unicode="&#xe9;" glyph-name="eacute" horiz-adv-x="609" d="M390 552T447 518T537 422T569 283Q569 270 561 263T540 255H121Q124 196 152 150T227 77T332 51Q371 51 410 64T473 100Q483 108 494 108Q505 108 512 102Q523 93 523 81Q523 71 514 62Q482
33 431 14T332 -5Q253 -5 192 30T95 129T60 273Q60 354 92 417T183 516T317 552Q390 552 447 518ZM239 496T186 444T122 307H511Q504 392 451 444T317 496Q239 496 186 444ZM408 811T421 811Q434 811 443 802T452 780Q452 768 443 759L320 636Q312 628 300 628Q287
628 278 637T269 659Q269 670 276 679L399 802Q408 811 421 811Z" />
<glyph unicode="&#xea;" glyph-name="ecircumflex" horiz-adv-x="609" d="M390 552T447 518T537 422T569 283Q569 270 561 263T540 255H121Q124 196 152 150T227 77T332 51Q371 51 410 64T473 100Q483 108 494 108Q505 108 512 102Q523 93 523 81Q523 71 514 62Q482
33 431 14T332 -5Q253 -5 192 30T95 129T60 273Q60 354 92 417T183 516T317 552Q390 552 447 518ZM239 496T186 444T122 307H511Q504 392 451 444T317 496Q239 496 186 444ZM204 648T195 648Q181 648 172 656T163 678Q163 695 179 705L300 786Q308 790 315 790Q322
790 330 786L451 705Q467 695 467 678Q467 665 458 657T436 648Q426 648 417 654L315 722L213 654Q204 648 195 648Z" />
<glyph unicode="&#xeb;" glyph-name="edieresis" horiz-adv-x="609" d="M390 552T447 518T537 422T569 283Q569 270 561 263T540 255H121Q124 196 152 150T227 77T332 51Q371 51 410 64T473 100Q483 108 494 108Q505 108 512 102Q523 93 523 81Q523 71 514 62Q482
33 431 14T332 -5Q253 -5 192 30T95 129T60 273Q60 354 92 417T183 516T317 552Q390 552 447 518ZM239 496T186 444T122 307H511Q504 392 451 444T317 496Q239 496 186 444ZM237 760T251 745T266 709Q266 687 252 672T215 657Q193 657 178 672T163 709Q163 730
178 745T215 760Q237 760 251 745ZM437 760T451 745T466 709Q466 687 452 672T415 657Q393 657 378 672T363 709Q363 730 378 745T415 760Q437 760 451 745Z" />
<glyph unicode="&#xec;" glyph-name="igrave" horiz-adv-x="280" d="M110 531T118 539T140 547Q154 547 162 539T170 517V30Q170 17 162 9T140 0Q127 0 119 8T110 30V517Q110 531 118 539ZM-11 778T-11 791Q-11 804 -2 813T20 822Q32 822 41 813L164 690Q171 683
171 670Q171 657 163 648T141 639Q131 639 120 647L-3 770Q-11 778 -11 791Z" />
<glyph unicode="&#xed;" glyph-name="iacute" horiz-adv-x="280" d="M110 531T118 539T140 547Q154 547 162 539T170 517V30Q170 17 162 9T140 0Q127 0 119 8T110 30V517Q110 531 118 539ZM233 811T246 811Q259 811 268 802T277 780Q277 768 268 759L145 636Q137
628 125 628Q112 628 103 637T94 659Q94 670 101 679L224 802Q233 811 246 811Z" />
<glyph unicode="&#xee;" glyph-name="icircumflex" horiz-adv-x="280" d="M110 531T118 539T140 547Q154 547 162 539T170 517V30Q170 17 162 9T140 0Q127 0 119 8T110 30V517Q110 531 118 539ZM40 648T32 648Q19 648 11 656T3 678Q3 695 17 705L126 786Q134 790
140 790Q146 790 153 786L262 705Q277 695 277 678Q277 665 269 657T249 648Q240 648 232 654L140 722L48 654Q40 648 32 648Z" />
<glyph unicode="&#xef;" glyph-name="idieresis" horiz-adv-x="280" d="M72 780T86 765T101 729Q101 707 87 692T50 677Q28 677 13 692T-2 729Q-2 750 13 765T50 780Q72 780 86 765ZM252 780T266 765T281 729Q281 707 267 692T230 677Q208 677 193 692T178 729Q178
750 193 765T230 780Q252 780 266 765ZM110 531T118 539T140 547Q154 547 162 539T170 517V30Q170 17 162 9T140 0Q127 0 119 8T110 30V517Q110 531 118 539Z" />
<glyph unicode="&#xf0;" glyph-name="eth" horiz-adv-x="663" d="M481 687T537 593T593 347V286Q592 201 558 135T464 32T327 -6Q250 -6 189 28T94 123T60 261Q60 337 94 396T189 489T327 523Q408 523 466 481T546 366Q542 491 490 568T325 698L291 628Q284 612
268 612Q261 612 258 614Q245 621 245 635Q245 642 248 648L281 717Q236 734 219 739Q208 743 200 751T192 770Q192 775 193 778Q199 797 220 797Q228 797 235 794Q269 783 306 768L334 827Q342 844 357 844Q362 844 368 841Q381 834 381 820Q381 813 378 807L350
749Q481 687 537 593ZM387 50T434 77T507 152T533 261Q533 321 507 368T434 441T327 467Q267 467 220 441T147 368T120 261Q120 200 146 152T220 77T327 50Q387 50 434 77Z" />
<glyph unicode="&#xf1;" glyph-name="ntilde" horiz-adv-x="673" d="M413 554T470 524T560 437T593 299V30Q593 17 585 9T563 0Q550 0 542 8T533 30V299Q533 394 480 444T340 494Q287 494 244 474T175 417T150 336V30Q150 17 142 9T120 0Q107 0 99 8T90 30V517Q90
531 98 539T120 547Q134 547 142 539T150 517V465Q184 507 233 530T340 554Q413 554 470 524ZM317 746T336 738T381 713Q402 699 413 694T442 688Q476 688 497 710Q509 724 525 724Q532 724 536 721Q554 712 554 697Q554 689 548 681Q509 630 442 630Q414 630 393
639T348 665Q328 679 316 683T291 688Q250 688 214 647Q205 635 189 635Q179 635 174 639Q159 648 159 662Q159 672 165 679Q192 711 224 728T291 746Q317 746 336 738Z" />
<glyph unicode="&#xf2;" glyph-name="ograve" horiz-adv-x="679" d="M418 553T482 517T582 416T619 273Q619 195 583 131T482 31T340 -6Q261 -6 197 30T97 131T60 273Q60 352 96 416T197 516T340 553Q418 553 482 517ZM278 497T228 468T149 387T120 273Q120 210
149 159T228 79T340 50Q402 50 452 79T530 159T559 273Q559 336 531 387T452 467T340 497Q278 497 228 468ZM189 778T189 791Q189 804 198 813T220 822Q232 822 241 813L364 690Q371 683 371 670Q371 657 363 648T341 639Q331 639 320 647L197 770Q189 778 189
791Z" />
<glyph unicode="&#xf3;" glyph-name="oacute" horiz-adv-x="679" d="M418 553T482 517T582 416T619 273Q619 195 583 131T482 31T340 -6Q261 -6 197 30T97 131T60 273Q60 352 96 416T197 516T340 553Q418 553 482 517ZM278 497T228 468T149 387T120 273Q120 210
149 159T228 79T340 50Q402 50 452 79T530 159T559 273Q559 336 531 387T452 467T340 497Q278 497 228 468ZM433 811T446 811Q459 811 468 802T477 780Q477 768 468 759L345 636Q337 628 325 628Q312 628 303 637T294 659Q294 670 301 679L424 802Q433 811 446
811Z" />
<glyph unicode="&#xf4;" glyph-name="ocircumflex" horiz-adv-x="679" d="M418 553T482 517T582 416T619 273Q619 195 583 131T482 31T340 -6Q261 -6 197 30T97 131T60 273Q60 352 96 416T197 516T340 553Q418 553 482 517ZM278 497T228 468T149 387T120 273Q120
210 149 159T228 79T340 50Q402 50 452 79T530 159T559 273Q559 336 531 387T452 467T340 497Q278 497 228 468ZM229 648T220 648Q206 648 197 656T188 678Q188 695 204 705L325 786Q333 790 340 790Q347 790 355 786L476 705Q492 695 492 678Q492 665 483 657T461
648Q451 648 442 654L340 722L238 654Q229 648 220 648Z" />
<glyph unicode="&#xf5;" glyph-name="otilde" horiz-adv-x="679" d="M418 553T482 517T582 416T619 273Q619 195 583 131T482 31T340 -6Q261 -6 197 30T97 131T60 273Q60 352 96 416T197 516T340 553Q418 553 482 517ZM278 497T228 468T149 387T120 273Q120 210
149 159T228 79T340 50Q402 50 452 79T530 159T559 273Q559 336 531 387T452 467T340 497Q278 497 228 468ZM320 746T339 738T384 713Q405 699 416 694T445 688Q479 688 500 710Q512 724 528 724Q535 724 539 721Q557 712 557 697Q557 689 551 681Q512 630 445
630Q417 630 396 639T351 665Q331 679 319 683T294 688Q253 688 217 647Q208 635 192 635Q182 635 177 639Q162 648 162 662Q162 672 168 679Q195 711 227 728T294 746Q320 746 339 738Z" />
<glyph unicode="&#xf6;" glyph-name="odieresis" horiz-adv-x="679" d="M418 553T482 517T582 416T619 273Q619 195 583 131T482 31T340 -6Q261 -6 197 30T97 131T60 273Q60 352 96 416T197 516T340 553Q418 553 482 517ZM278 497T228 468T149 387T120 273Q120
210 149 159T228 79T340 50Q402 50 452 79T530 159T559 273Q559 336 531 387T452 467T340 497Q278 497 228 468ZM262 760T276 745T291 709Q291 687 277 672T240 657Q218 657 203 672T188 709Q188 730 203 745T240 760Q262 760 276 745ZM462 760T476 745T491 709Q491
687 477 672T440 657Q418 657 403 672T388 709Q388 730 403 745T440 760Q462 760 476 745Z" />
<glyph unicode="&#xf7;" glyph-name="divide" horiz-adv-x="469" d="M250 547T261 535T273 506Q273 489 262 478T233 466Q216 466 204 477T192 506Q192 523 204 535T233 547Q250 547 261 535ZM408 385T416 376T425 354Q425 341 417 333T395 324H71Q58 324 50 332T41
354Q41 367 49 376T71 385H395Q408 385 416 376ZM250 243T261 232T273 203Q273 186 262 174T233 162Q216 162 204 174T192 203Q192 220 204 231T233 243Q250 243 261 232Z" />
<glyph unicode="&#xf8;" glyph-name="oslash" horiz-adv-x="694" d="M634 373T634 273Q634 195 598 131T497 31T355 -6Q304 -6 259 10T176 55L113 -8Q104 -17 91 -17Q78 -17 69 -8T60 14Q60 26 69 35L133 98Q75 173 75 273Q75 352 111 416T212 516T355 553Q407
553 452 537T535 491L581 537Q589 547 604 547Q618 547 625 538T633 515Q633 502 626 495L577 447Q634 373 634 273ZM293 497T243 468T164 387T135 273Q135 195 180 134L495 448Q467 472 431 484T355 497Q293 497 243 468ZM417 50T467 79T545 159T574 273Q574 348
535 404L223 93Q280 50 355 50Q417 50 467 79Z" />
<glyph unicode="&#xf9;" glyph-name="ugrave" horiz-adv-x="673" d="M567 547T575 539T583 517V30Q583 17 575 9T553 0Q540 0 532 8T523 30V82Q489 40 440 17T333 -7Q260 -7 203 23T113 110T80 248V517Q80 530 88 538T110 547Q123 547 131 539T140 517V248Q140
153 193 103T333 53Q386 53 429 73T498 130T523 211V517Q523 531 531 539T553 547Q567 547 575 539ZM186 778T186 791Q186 804 195 813T217 822Q229 822 238 813L361 690Q368 683 368 670Q368 657 360 648T338 639Q328 639 317 647L194 770Q186 778 186 791Z" />
<glyph unicode="&#xfa;" glyph-name="uacute" horiz-adv-x="673" d="M567 547T575 539T583 517V30Q583 17 575 9T553 0Q540 0 532 8T523 30V82Q489 40 440 17T333 -7Q260 -7 203 23T113 110T80 248V517Q80 530 88 538T110 547Q123 547 131 539T140 517V248Q140
153 193 103T333 53Q386 53 429 73T498 130T523 211V517Q523 531 531 539T553 547Q567 547 575 539ZM430 811T443 811Q456 811 465 802T474 780Q474 768 465 759L342 636Q334 628 322 628Q309 628 300 637T291 659Q291 670 298 679L421 802Q430 811 443 811Z" />
<glyph unicode="&#xfb;" glyph-name="ucircumflex" horiz-adv-x="673" d="M567 547T575 539T583 517V30Q583 17 575 9T553 0Q540 0 532 8T523 30V82Q489 40 440 17T333 -7Q260 -7 203 23T113 110T80 248V517Q80 530 88 538T110 547Q123 547 131 539T140 517V248Q140
153 193 103T333 53Q386 53 429 73T498 130T523 211V517Q523 531 531 539T553 547Q567 547 575 539ZM226 648T217 648Q203 648 194 656T185 678Q185 695 201 705L322 786Q330 790 337 790Q344 790 352 786L473 705Q489 695 489 678Q489 665 480 657T458 648Q448
648 439 654L337 722L235 654Q226 648 217 648Z" />
<glyph unicode="&#xfc;" glyph-name="udieresis" horiz-adv-x="673" d="M567 547T575 539T583 517V30Q583 17 575 9T553 0Q540 0 532 8T523 30V82Q489 40 440 17T333 -7Q260 -7 203 23T113 110T80 248V517Q80 530 88 538T110 547Q123 547 131 539T140 517V248Q140
153 193 103T333 53Q386 53 429 73T498 130T523 211V517Q523 531 531 539T553 547Q567 547 575 539ZM259 760T273 745T288 709Q288 687 274 672T237 657Q215 657 200 672T185 709Q185 730 200 745T237 760Q259 760 273 745ZM459 760T473 745T488 709Q488 687 474
672T437 657Q415 657 400 672T385 709Q385 730 400 745T437 760Q459 760 473 745Z" />
<glyph unicode="&#xfd;" glyph-name="yacute" horiz-adv-x="554" d="M544 538T544 523Q544 519 540 509L204 -219Q195 -237 181 -237Q175 -237 167 -234Q148 -226 148 -211Q148 -207 152 -197L252 19Q251 20 248 26L29 506Q25 514 25 522Q25 537 42 545Q50 549
58 549Q73 549 81 532L284 88L488 531Q497 549 511 549Q518 549 525 546Q544 538 544 523ZM378 811T391 811Q404 811 413 802T422 780Q422 768 413 759L290 636Q282 628 270 628Q257 628 248 637T239 659Q239 670 246 679L369 802Q378 811 391 811Z" />
<glyph unicode="&#xfe;" glyph-name="thorn" horiz-adv-x="709" d="M450 553T514 518T613 418T649 273Q649 192 613 129T514 30T369 -6Q294 -6 237 28T150 121V-204Q150 -218 142 -226T120 -234Q107 -234 99 -226T90 -204V751Q90 765 98 773T120 781Q134 781 142
773T150 751V426Q180 489 240 521T369 553Q450 553 514 518ZM433 50T483 78T561 157T589 273Q589 338 561 389T483 468T369 497Q306 497 256 469T178 389T150 273Q150 208 178 158T256 79T369 50Q433 50 483 78Z" />
<glyph unicode="&#xff;" glyph-name="ydieresis" horiz-adv-x="554" d="M544 538T544 523Q544 519 540 509L204 -219Q195 -237 181 -237Q175 -237 167 -234Q148 -226 148 -211Q148 -207 152 -197L252 19Q251 20 248 26L29 506Q25 514 25 522Q25 537 42 545Q50
549 58 549Q73 549 81 532L284 88L488 531Q497 549 511 549Q518 549 525 546Q544 538 544 523ZM207 760T221 745T236 709Q236 687 222 672T185 657Q163 657 148 672T133 709Q133 730 148 745T185 760Q207 760 221 745ZM407 760T421 745T436 709Q436 687 422 672T385
657Q363 657 348 672T333 709Q333 730 348 745T385 760Q407 760 421 745Z" />
<glyph unicode="&#x2013;" glyph-name="endash" horiz-adv-x="391" d="M409 304T417 295T426 273Q426 260 418 252T396 243H-9Q-22 243 -31 251T-40 273Q-40 286 -31 295T-9 304H396Q409 304 417 295Z" />
<glyph unicode="&#x2014;" glyph-name="emdash" horiz-adv-x="938" d="M971 304T979 295T988 273Q988 260 980 252T958 243H-15Q-28 243 -36 251T-45 273Q-45 286 -37 295T-15 304H958Q971 304 979 295Z" />
<glyph unicode="&#x2018;" glyph-name="quoteleft" horiz-adv-x="234" d="M96 563T83 582T70 636Q70 663 83 702T116 770T151 799Q162 799 169 790T172 770Q155 726 155 690Q155 674 159 650Q163 626 163 612Q163 589 151 576T118 563Q96 563 83 582Z" />
<glyph unicode="&#x2019;" glyph-name="quoteright" horiz-adv-x="153" d="M77 787T90 768T103 714Q103 687 90 648T57 580T22 551Q11 551 4 560T1 580Q18 624 18 660Q18 676 14 700Q10 724 10 738Q10 761 22 774T55 787Q77 787 90 768Z" />
<glyph unicode="&#x201a;" glyph-name="quotesinglbase" horiz-adv-x="234" d="M137 87T150 68T163 14Q163 -13 150 -52T117 -120T82 -149Q71 -149 64 -140T61 -120Q78 -76 78 -40Q78 -24 74 0Q70 24 70 38Q70 61 82 74T115 87Q137 87 150 68Z" />
<glyph unicode="&#x201c;" glyph-name="quotedblleft" horiz-adv-x="273" d="M56 563T43 582T30 636Q30 663 43 702T76 770T111 799Q122 799 129 790T132 770Q115 726 115 690Q115 674 119 650Q123 626 123 612Q123 589 111 576T78 563Q56 563 43 582ZM196 563T183
582T170 636Q170 663 183 702T216 770T251 799Q262 799 269 790T272 770Q255 726 255 690Q255 674 259 650Q263 626 263 612Q263 589 251 576T218 563Q196 563 183 582Z" />
<glyph unicode="&#x201d;" glyph-name="quotedblright" horiz-adv-x="273" d="M217 563T230 582T243 636Q243 663 230 702T197 770T162 799Q151 799 144 790T141 770Q158 726 158 690Q158 674 154 650Q150 626 150 612Q150 589 162 576T195 563Q217 563 230 582ZM77
563T90 582T103 636Q103 663 90 702T57 770T22 799Q11 799 4 790T1 770Q18 726 18 690Q18 674 14 650Q10 626 10 612Q10 589 22 576T55 563Q77 563 90 582Z" />
<glyph unicode="&#x201e;" glyph-name="quotedblbase" horiz-adv-x="254" d="M364 87T377 68T390 14Q390 -13 377 -52T344 -120T309 -149Q298 -149 291 -140T288 -120Q305 -76 305 -40Q305 -24 301 0Q297 24 297 38Q297 61 309 74T342 87Q364 87 377 68ZM228 87T241
68T254 14Q254 -13 241 -52T208 -120T173 -149Q162 -149 155 -140T152 -120Q169 -76 169 -40Q169 -24 165 0Q161 24 161 38Q161 61 173 74T206 87Q228 87 241 68Z" />
<glyph unicode="&#x2022;" glyph-name="bullet" horiz-adv-x="391" d="M238 506T271 473T305 395Q305 350 272 317T193 284Q146 284 114 316T82 395Q82 441 114 473T193 506Q238 506 271 473Z" />
<glyph unicode="&#x2039;" glyph-name="guilsinglleft" horiz-adv-x="273" d="M223 39T223 30Q223 17 214 9T192 0Q182 0 176 4T164 19L45 256Q41 264 41 273Q41 281 44 288L164 527Q174 546 192 546Q205 546 214 538T223 516Q223 509 220 503L105 273L220 43Q223
39 223 30Z" />
<glyph unicode="&#x203a;" glyph-name="guilsinglright" horiz-adv-x="273" d="M41 511T41 516Q41 529 49 537T71 546Q80 546 86 542T99 527L219 288Q223 278 223 273Q223 266 218 256L99 19Q94 9 88 5T71 0Q58 0 50 8T41 30Q41 37 43 43L158 273L43 503Q41 511 41 516Z" />
</font>
</defs>
</svg>
